<?xml version="1.0" standalone="no"?>
<!DOCTYPE svg PUBLIC "-//W3C//DTD SVG 1.1//EN" "http://www.w3.org/Graphics/SVG/1.1/DTD/svg11.dtd" >
<svg xmlns="http://www.w3.org/2000/svg" xmlns:xlink="http://www.w3.org/1999/xlink" version="1.1">
<metadata>
Created by FontForge 20201107 at Mon Jul 16 10:33:21 2007
 By Unknown
Copyright (c) The Font Bureau, Inc., 2003. All rights reserved.
</metadata>
<defs>
<font id="Agenda-Regular" horiz-adv-x="500" >
  <font-face 
    font-family="Agenda Regular"
    font-weight="400"
    font-stretch="normal"
    units-per-em="1000"
    panose-1="2 0 6 3 4 0 0 2 0 4"
    ascent="715"
    descent="-285"
    x-height="453"
    cap-height="638"
    bbox="-80 -235 1010 917"
    underline-thickness="20"
    underline-position="-80"
    stemh="67"
    stemv="78"
    unicode-range="U+0020-FB02"
  />
<missing-glyph horiz-adv-x="1000" 
 />
    <glyph glyph-name="fi" unicode="fi" horiz-adv-x="518" 
d="M461 0h-77v391h-215v-391h-77v391h-79v62h79v67c0 127 74 192 188 192c34 0 65 -5 87 -14l-16 -65c-19 8 -45 14 -66 14c-74 0 -116 -43 -116 -131v-63h292v-453z" />
    <glyph glyph-name="fl" unicode="fl" horiz-adv-x="542" 
d="M520 36l-52 -53c-33 9 -84 40 -84 120v511c-24 19 -62 33 -99 33c-74 0 -116 -43 -116 -131v-63h108v-62h-108v-391h-77v391h-79v62h79v67c0 127 74 192 188 192c81 0 143 -35 181 -69v-530c0 -43 29 -71 59 -77z" />
    <glyph glyph-name="f_f_l" unicode="ffl" horiz-adv-x="834" 
d="M812 36l-53 -53c-33 9 -84 40 -84 120v511c-24 19 -61 33 -98 33c-74 0 -116 -43 -116 -131v-63h107v-62h-107v-391h-77v391h-215v-391h-77v391h-79v62h79v67c0 127 74 192 188 192c65 0 116 -22 155 -49c33 32 80 49 137 49c81 0 142 -35 180 -69v-530
c0 -43 30 -71 60 -77zM398 605c-31 26 -74 42 -113 42c-74 0 -116 -43 -116 -131v-63h215v67c0 33 5 61 14 85z" />
    <glyph glyph-name="f_f_i" unicode="ffi" horiz-adv-x="809" 
d="M752 0h-77v391h-214v-391h-77v391h-215v-391h-77v391h-79v62h79v67c0 127 74 192 188 192c65 0 116 -22 155 -49c33 32 80 49 137 49c34 0 64 -5 86 -14l-15 -65c-19 8 -45 14 -66 14c-74 0 -116 -43 -116 -131v-63h291v-453zM398 605c-31 26 -74 42 -113 42
c-74 0 -116 -43 -116 -131v-63h215v67c0 33 5 61 14 85z" />
    <glyph glyph-name="f_f" unicode="ff" horiz-adv-x="626" 
d="M658 698l-15 -65c-19 8 -45 14 -66 14c-74 0 -116 -43 -116 -131v-63h137l-13 -62h-124v-391h-77v391h-215v-391h-77v391h-79v62h79v67c0 127 74 192 188 192c65 0 116 -22 155 -49c33 32 80 49 137 49c34 0 64 -5 86 -14zM398 605c-31 26 -74 42 -113 42
c-74 0 -116 -43 -116 -131v-63h215v67c0 33 5 61 14 85z" />
    <glyph glyph-name=".notdef" horiz-adv-x="1000" 
 />
    <glyph glyph-name="eth" unicode="&#xf0;" horiz-adv-x="497" 
d="M456 209c0 -142 -97 -220 -211 -220c-120 0 -209 88 -209 206c0 98 66 175 153 204c34 11 79 21 113 26l-54 125l-87 -35l-23 58l85 35l-45 104h81l33 -77l78 32l23 -58l-76 -31l116 -272c11 -26 23 -70 23 -97zM379 208c0 37 -32 110 -52 153c-29 -3 -72 -11 -102 -21
c-73 -25 -112 -76 -112 -145c0 -81 58 -138 131 -138s135 56 135 151z" />
    <glyph glyph-name="Lslash" unicode="&#x141;" horiz-adv-x="441" 
d="M435 0h-371v248l-52 -30v72l52 30v318h82v-271l159 92v-73l-159 -92v-223h289v-71z" />
    <glyph glyph-name="lslash" unicode="&#x142;" horiz-adv-x="225" 
d="M209 386l-69 -40v-233c0 -43 29 -71 59 -77l-52 -53c-33 9 -84 40 -84 120v198l-52 -29v71l52 31v338h77v-293l69 40v-73z" />
    <glyph glyph-name="Scaron" unicode="&#x160;" horiz-adv-x="471" 
d="M430 177c0 -110 -78 -182 -209 -182c-71 0 -131 22 -165 46l-10 83c46 -36 108 -61 178 -61c75 0 128 43 128 107s-37 99 -120 128c-112 38 -168 93 -168 182c0 83 62 164 191 164c60 0 110 -19 135 -36l-16 -66c-24 17 -72 37 -121 37c-73 0 -114 -45 -114 -93
c0 -52 35 -84 109 -110c111 -40 182 -90 182 -199zM382 860c-48 -36 -98 -88 -132 -142c-2 -4 -8 -8 -12 -8c-5 0 -11 3 -13 8c-33 54 -85 106 -132 142l53 23c35 -25 66 -50 91 -80c26 30 57 55 91 80z" />
    <glyph glyph-name="scaron" unicode="&#x161;" horiz-adv-x="368" 
d="M332 123c0 -74 -57 -129 -157 -129c-54 0 -95 14 -125 35l-10 80c33 -29 83 -52 136 -52c47 0 82 25 82 63c0 37 -28 59 -75 76c-85 30 -133 69 -133 140c0 73 60 123 143 123c49 0 95 -18 113 -29l-16 -63c-20 15 -53 30 -98 30c-42 0 -70 -24 -70 -58
c0 -36 25 -52 72 -69c87 -31 138 -72 138 -147zM303 654c-40 -31 -83 -75 -112 -121c-2 -3 -6 -6 -10 -6s-9 2 -12 6c-28 46 -71 90 -111 121l45 19c30 -21 56 -42 77 -68c22 26 48 47 78 68z" />
    <glyph glyph-name="Yacute" unicode="&#xdd;" horiz-adv-x="613" 
d="M592 638l-245 -344v-294h-80v294l-244 344h90l133 -187c20 -29 44 -64 63 -94h2c19 30 44 67 63 94l133 187h85zM441 850c0 -5 -6 -13 -13 -21c-41 -45 -88 -83 -141 -115l-47 20c46 36 100 91 135 140c7 10 19 16 25 16c13 0 41 -28 41 -40z" />
    <glyph glyph-name="yacute" unicode="&#xfd;" horiz-adv-x="468" 
d="M445 453l-168 -411c-67 -163 -139 -237 -230 -277l-50 50c85 36 146 93 199 218l-173 420h80l90 -220c13 -32 29 -74 41 -112h2c14 36 33 81 45 111l90 221h74zM353 644c0 -4 -4 -11 -10 -17c-35 -39 -76 -71 -120 -99l-40 18c39 30 85 77 115 119c5 8 16 13 21 13
c11 0 34 -24 34 -34z" />
    <glyph glyph-name="Thorn" unicode="&#xde;" horiz-adv-x="478" 
d="M442 388c0 -115 -96 -176 -188 -176h-106v-212h-81v639h81v-75h104c94 0 190 -61 190 -176zM358 388c0 69 -56 106 -120 106h-90v-212h92c62 0 118 36 118 106z" />
    <glyph glyph-name="thorn" unicode="&#xfe;" horiz-adv-x="532" 
d="M496 227c0 -139 -99 -238 -231 -238c-50 0 -106 21 -126 41v-261h-77v943h77v-301c25 28 70 53 135 53c107 0 222 -85 222 -237zM418 225c0 101 -71 169 -160 169c-58 0 -98 -28 -119 -57v-234c17 -20 59 -47 119 -47c89 0 160 69 160 169z" />
    <glyph glyph-name="Zcaron" unicode="&#x17d;" horiz-adv-x="525" 
d="M486 0h-445v20l211 365c35 60 77 130 109 181l-1 1h-299v71h413v-20l-213 -366c-35 -59 -75 -127 -108 -180l1 -1h332v-71zM410 861c-48 -36 -98 -88 -132 -142c-2 -4 -8 -8 -12 -8c-5 0 -11 3 -13 8c-33 54 -85 106 -132 142l53 23c35 -25 66 -50 91 -80
c26 30 57 55 91 80z" />
    <glyph glyph-name="zcaron" unicode="&#x17e;" horiz-adv-x="427" 
d="M392 0h-356v16l151 248c24 39 53 89 77 125l-1 2h-211v62h322v-16l-152 -248c-25 -40 -50 -82 -77 -125l1 -2h246v-62zM335 654c-40 -31 -83 -75 -111 -121c-2 -3 -7 -6 -11 -6s-9 2 -11 6c-28 46 -72 90 -112 121l45 19c30 -21 57 -42 78 -68c22 26 48 47 77 68z" />
    <glyph glyph-name="onehalf" unicode="&#xbd;" horiz-adv-x="791" 
d="M742 0h-275v15c137 116 200 201 200 258c0 53 -35 82 -92 82c-36 0 -66 -11 -92 -26l-12 47c25 15 63 26 104 26c96 0 147 -52 147 -131c0 -64 -55 -146 -143 -224h163v-47zM617 627l-520 -642l-31 26l520 642zM176 249h-56v345l-81 -7l12 52l125 11v-401z" />
    <glyph glyph-name="onequarter" unicode="&#xbc;" horiz-adv-x="731" 
d="M675 117h-53v-117h-55v117h-172l-13 46l192 234h48v-233h53v-47zM569 321l-2 1c-11 -19 -24 -35 -39 -54l-84 -104h123v105c0 18 0 34 2 52zM617 627l-520 -642l-31 26l520 642zM176 249h-56v345l-81 -7l12 52l125 11v-401z" />
    <glyph glyph-name="onesuperior" unicode="&#xb9;" horiz-adv-x="262" 
d="M176 249h-56v345l-81 -7l12 52l125 11v-401z" />
    <glyph glyph-name="threequarters" unicode="&#xbe;" horiz-adv-x="766" 
d="M721 117h-54v-117h-53v116h-173l-12 45l192 236h46v-235h54v-45zM616 324c-13 -18 -26 -36 -41 -55l-86 -107h125v108c0 19 1 35 2 54zM664 628l-520 -643l-31 25l521 643zM272 367c0 -73 -56 -125 -150 -125c-25 0 -54 7 -74 16l-7 53c23 -14 52 -23 79 -23
c51 0 97 29 97 84c0 42 -39 78 -86 78c-4 0 -9 0 -18 -2l-11 43c51 9 84 34 84 64c0 28 -25 50 -60 50c-24 0 -42 -6 -69 -21l-12 45c27 14 52 21 82 21c65 0 112 -38 112 -91c0 -37 -22 -62 -54 -77c48 -14 87 -54 87 -115z" />
    <glyph glyph-name="threesuperior" unicode="&#xb3;" horiz-adv-x="315" 
d="M272 367c0 -73 -56 -125 -150 -125c-25 0 -54 7 -74 16l-7 53c23 -14 52 -23 79 -23c51 0 97 29 97 84c0 42 -39 78 -86 78c-4 0 -9 0 -18 -2l-11 43c51 9 84 34 84 64c0 28 -25 50 -60 50c-24 0 -42 -6 -69 -21l-12 45c27 14 52 21 82 21c65 0 112 -38 112 -91
c0 -37 -22 -62 -54 -77c48 -14 87 -54 87 -115z" />
    <glyph glyph-name="twosuperior" unicode="&#xb2;" horiz-adv-x="364" 
d="M310 248h-275v15c137 116 200 201 200 258c0 53 -35 82 -92 82c-36 0 -66 -10 -92 -25l-12 46c25 15 63 26 104 26c96 0 147 -52 147 -131c0 -64 -54 -146 -142 -224h162v-47z" />
    <glyph glyph-name="brokenbar" unicode="&#xa6;" horiz-adv-x="226" 
d="M147 300h-67v412h67v-412zM147 -231h-67v412h67v-412z" />
    <glyph glyph-name="minus" unicode="&#x2212;" horiz-adv-x="416" 
d="M360 245h-304v57h304v-57z" />
    <glyph glyph-name="multiply" unicode="&#xd7;" horiz-adv-x="472" 
d="M397 150l-37 -37l-122 122l-123 -123l-37 37l123 123l-122 122l37 37l122 -122l122 121l36 -36l-121 -122z" />
    <glyph glyph-name="space" unicode=" " horiz-adv-x="234" 
 />
    <glyph glyph-name="space" unicode="&#xa0;" horiz-adv-x="234" 
 />
    <glyph glyph-name="exclam" unicode="!" horiz-adv-x="255" 
d="M175 638l-14 -465l-64 16l-13 449h91zM187 45c0 -18 -37 -55 -55 -55s-55 37 -55 55c0 17 37 54 55 54s55 -37 55 -54z" />
    <glyph glyph-name="quotedbl" unicode="&#x22;" horiz-adv-x="295" 
d="M257 638l-15 -217h-42l-15 217h72zM109 638l-16 -217h-42l-13 217h71z" />
    <glyph glyph-name="numbersign" unicode="#" horiz-adv-x="386" 
d="M380 382h-65l-29 -126h66v-50h-78l-48 -206h-56l47 206h-101l-47 -206h-57l48 206h-54v50h66l29 126h-67v50h79l47 206h57l-48 -206h102l47 206h56l-47 -206h53v-50zM258 382h-101l-29 -126h101z" />
    <glyph glyph-name="dollar" unicode="$" horiz-adv-x="458" 
d="M417 173c0 -109 -75 -170 -170 -182v-88h-50v86c-58 2 -110 18 -156 50l17 70c35 -27 87 -52 151 -52c83 0 131 50 131 110c0 56 -41 99 -122 128c-108 38 -174 100 -174 185c0 91 64 155 153 168v89h50v-87c48 -2 91 -12 130 -36l-16 -66c-34 20 -78 35 -128 35
c-74 0 -113 -48 -113 -96c0 -49 39 -84 113 -112c112 -42 184 -105 184 -202z" />
    <glyph glyph-name="percent" unicode="%" horiz-adv-x="698" 
d="M659 128c0 -83 -60 -139 -139 -139s-138 56 -138 139c0 81 59 139 138 139s139 -58 139 -139zM595 128c0 49 -34 79 -75 79s-75 -30 -75 -79c0 -50 34 -81 75 -81s75 31 75 81zM628 628l-524 -649l-39 32l525 649zM313 511c0 -83 -59 -140 -138 -140s-139 57 -139 140
c0 81 60 139 139 139s138 -58 138 -139zM249 511c0 49 -33 78 -74 78s-75 -29 -75 -78c0 -50 34 -81 75 -81s74 31 74 81z" />
    <glyph glyph-name="ampersand" unicode="&#x26;" horiz-adv-x="614" 
d="M608 0h-104l-64 64c-54 -48 -121 -75 -201 -75c-118 0 -198 77 -198 169c0 83 45 135 125 181c-54 55 -84 103 -84 156c0 95 77 155 161 155c87 0 168 -60 168 -155c0 -67 -40 -122 -126 -171l153 -154c31 42 55 91 70 141l52 -52c-17 -52 -41 -100 -71 -140zM337 494
c0 48 -35 90 -94 90c-52 0 -87 -41 -87 -85c0 -42 28 -75 78 -124c71 39 103 77 103 119zM388 115l-172 173c-59 -32 -97 -67 -97 -126c0 -60 54 -106 124 -106c55 0 104 22 145 59z" />
    <glyph glyph-name="quotesingle" unicode="'" horiz-adv-x="147" 
d="M109 638l-16 -217h-42l-13 217h71z" />
    <glyph glyph-name="parenleft" unicode="(" horiz-adv-x="237" 
d="M231 693c-67 -123 -114 -284 -114 -452c0 -175 36 -316 110 -467l-81 19c-62 123 -105 251 -105 447c0 191 43 339 113 470z" />
    <glyph glyph-name="parenright" unicode=")" horiz-adv-x="237" 
d="M196 243c0 -191 -42 -338 -113 -470l-77 18c67 123 115 285 115 452c0 176 -37 316 -110 467l80 -20c62 -123 105 -251 105 -447z" />
    <glyph glyph-name="asterisk" unicode="*" horiz-adv-x="412" 
d="M398 522l-148 -40l88 -109l-48 -53l-85 128l-74 -116l-66 30l96 120l-134 35l8 70l142 -54l-7 138l71 16l-8 -153l128 50z" />
    <glyph glyph-name="plus" unicode="+" horiz-adv-x="458" 
d="M416 244h-150v-143h-73v143h-151v66h151v143h73v-143h150v-66z" />
    <glyph glyph-name="comma" unicode="," horiz-adv-x="192" 
d="M151 45c0 -51 -43 -130 -81 -168l-28 5c28 34 46 83 46 117c-19 3 -47 32 -47 46c0 20 38 54 55 54c16 0 55 -34 55 -54z" />
    <glyph glyph-name="hyphen" unicode="-" horiz-adv-x="334" 
d="M292 244h-250v66h250v-66z" />
    <glyph glyph-name="hyphen" unicode="&#xad;" horiz-adv-x="334" 
d="M292 244h-250v66h250v-66z" />
    <glyph glyph-name="period" unicode="." horiz-adv-x="192" 
d="M151 45c0 -18 -37 -55 -55 -55s-55 37 -55 55c0 17 37 54 55 54s55 -37 55 -54z" />
    <glyph glyph-name="slash" unicode="/" horiz-adv-x="468" 
d="M430 640l-408 -801l-58 30l409 801z" />
    <glyph glyph-name="zero" unicode="0" horiz-adv-x="510" 
d="M469 320c0 -221 -101 -331 -214 -331c-115 0 -214 110 -214 331c0 219 99 330 214 330c113 0 214 -111 214 -330zM391 320c0 182 -66 261 -136 261c-71 0 -136 -79 -136 -261c0 -184 65 -262 136 -262c70 0 136 78 136 262z" />
    <glyph glyph-name="one" unicode="1" horiz-adv-x="263" 
d="M196 0h-77v576l-113 -12l15 65l175 17v-646z" />
    <glyph glyph-name="two" unicode="2" horiz-adv-x="454" 
d="M413 0h-377v16c167 185 270 339 270 441c0 87 -51 128 -117 128c-45 0 -91 -15 -124 -38l-18 65c38 24 86 38 141 38c112 0 193 -68 193 -195c0 -118 -101 -255 -223 -391h255v-64z" />
    <glyph glyph-name="three" unicode="3" horiz-adv-x="434" 
d="M392 190c0 -115 -83 -200 -226 -200c-38 0 -82 10 -113 25l-9 74c33 -21 78 -34 118 -34c81 0 156 49 156 143c0 72 -62 132 -138 132c-7 0 -16 0 -25 -2l-16 62c75 13 128 57 128 109c0 50 -37 86 -96 86c-38 0 -69 -9 -104 -30l-15 62c36 21 75 32 121 32
c99 0 168 -60 168 -143c0 -69 -46 -115 -98 -129c75 -11 149 -78 149 -187z" />
    <glyph glyph-name="four" unicode="4" horiz-adv-x="476" 
d="M435 177h-73v-177h-77v177h-265l-14 62l304 399h52v-398h73v-63zM286 502l-2 1c-21 -32 -44 -61 -65 -89l-132 -174h198v175c0 29 0 56 1 87z" />
    <glyph glyph-name="five" unicode="5" horiz-adv-x="455" 
d="M414 192c0 -109 -78 -203 -219 -203c-50 0 -97 13 -124 29l-9 74c40 -25 84 -38 129 -38c81 0 148 54 148 139c0 86 -66 142 -145 142c-46 0 -82 -8 -113 -20l10 323h273l-15 -63h-187l-5 -181c9 2 26 6 43 6c118 0 214 -80 214 -208z" />
    <glyph glyph-name="six" unicode="6" horiz-adv-x="497" 
d="M461 194c0 -118 -87 -205 -207 -205c-115 0 -213 81 -213 227c0 171 125 352 294 441l77 -36c-124 -64 -220 -156 -265 -273c25 29 61 50 111 50c120 0 203 -88 203 -204zM383 190c0 79 -54 137 -130 137c-58 0 -114 -27 -132 -99c-1 -10 -1 -21 -1 -31
c0 -81 63 -143 135 -143s128 55 128 136z" />
    <glyph glyph-name="seven" unicode="7" horiz-adv-x="448" 
d="M425 638l-273 -638h-83l246 572h-309v66h419z" />
    <glyph glyph-name="eight" unicode="8" horiz-adv-x="503" 
d="M462 175c0 -117 -97 -186 -211 -186s-210 69 -210 186c0 96 77 155 134 174c-54 20 -106 70 -106 143c0 94 80 158 182 158c103 0 182 -64 182 -158c0 -71 -52 -123 -105 -141c55 -17 134 -80 134 -176zM359 490c0 55 -47 95 -107 95c-58 0 -107 -40 -107 -95
c0 -48 44 -91 110 -109c65 19 104 61 104 109zM384 177c0 69 -72 119 -139 136c-64 -18 -131 -66 -131 -136c0 -72 63 -120 134 -120c73 0 136 48 136 120z" />
    <glyph glyph-name="nine" unicode="9" horiz-adv-x="497" 
d="M456 424c0 -171 -125 -352 -294 -441l-77 35c125 65 222 157 266 274c-25 -29 -61 -50 -112 -50c-120 0 -203 88 -203 204c0 118 88 204 208 204c115 0 212 -80 212 -226zM377 437c0 81 -63 144 -135 144s-128 -55 -128 -136c0 -79 54 -137 130 -137c58 0 114 28 132 100
c1 10 1 19 1 29z" />
    <glyph glyph-name="colon" unicode=":" horiz-adv-x="192" 
d="M151 409c0 -17 -37 -55 -55 -55s-55 38 -55 55c0 18 37 55 55 55s55 -37 55 -55zM151 45c0 -18 -37 -55 -55 -55s-55 37 -55 55c0 17 37 54 55 54s55 -37 55 -54z" />
    <glyph glyph-name="semicolon" unicode=";" horiz-adv-x="192" 
d="M151 409c0 -17 -37 -55 -55 -55s-55 38 -55 55c0 18 37 55 55 55s55 -37 55 -55zM151 45c0 -51 -43 -130 -81 -168l-28 5c28 34 46 83 46 117c-19 3 -47 32 -47 46c0 20 38 54 55 54c16 0 55 -34 55 -54z" />
    <glyph glyph-name="less" unicode="&#x3c;" horiz-adv-x="458" 
d="M416 109l-374 123v91l374 123v-70l-312 -99l312 -99v-69z" />
    <glyph glyph-name="equal" unicode="=" horiz-adv-x="458" 
d="M416 330h-374v66h374v-66zM416 158h-374v66h374v-66z" />
    <glyph glyph-name="greater" unicode="&#x3e;" horiz-adv-x="458" 
d="M416 232l-374 -123v69l312 99l-312 99v70l374 -123v-91z" />
    <glyph glyph-name="question" unicode="?" horiz-adv-x="374" 
d="M336 493c0 -60 -33 -99 -85 -155c-32 -35 -45 -67 -45 -103c0 -19 1 -44 5 -62l-70 16c-4 18 -7 34 -7 53c0 55 22 108 59 145c36 37 61 67 61 113c0 39 -34 81 -90 81c-45 0 -80 -15 -111 -35l-16 69c31 20 74 35 126 35c99 0 173 -58 173 -157zM233 45
c0 -18 -36 -55 -55 -55c-18 0 -55 37 -55 55c0 17 37 54 55 54c19 0 55 -37 55 -54z" />
    <glyph glyph-name="at" unicode="@" horiz-adv-x="757" 
d="M716 332c0 -96 -58 -197 -163 -197c-35 0 -74 18 -82 62c-18 -44 -61 -62 -105 -62c-70 0 -116 48 -116 106c0 69 58 104 117 110l84 8v24c0 35 -24 60 -73 60c-35 0 -70 -13 -96 -29l-14 54c28 18 70 31 113 31c78 0 135 -43 135 -121v-148c0 -32 18 -44 38 -44
c57 0 104 53 104 146c0 157 -135 263 -277 263c-144 0 -281 -103 -281 -275c0 -171 135 -274 272 -274c35 0 67 3 92 12l-6 -53c-18 -7 -50 -11 -89 -11c-169 0 -328 126 -328 328c0 200 163 328 339 328c177 0 336 -127 336 -318zM451 270v35l-71 -7
c-37 -4 -67 -20 -67 -58c0 -27 23 -50 57 -50c41 0 81 31 81 80z" />
    <glyph glyph-name="A" unicode="A" horiz-adv-x="610" 
d="M587 0h-83l-71 172h-259l-70 -172h-81l267 647h30zM405 238l-70 176c-10 25 -21 58 -30 88h-2c-8 -30 -21 -63 -31 -88l-70 -176h203z" />
    <glyph glyph-name="B" unicode="B" horiz-adv-x="513" 
d="M472 192c0 -126 -104 -192 -205 -192h-200v638h167c87 0 176 -58 176 -163c0 -49 -25 -98 -65 -115c66 -16 127 -85 127 -168zM328 475c0 63 -48 95 -106 95h-77v-188h78c56 0 105 30 105 93zM390 192c0 81 -67 124 -142 124h-103v-248h106c73 0 139 42 139 124z" />
    <glyph glyph-name="C" unicode="C" horiz-adv-x="604" 
d="M563 602l-15 -70c-34 22 -97 43 -163 43c-135 0 -265 -93 -265 -257s128 -257 265 -257c73 0 126 15 167 39l-8 -73c-38 -21 -88 -33 -167 -33c-166 0 -336 119 -336 325c0 208 172 325 335 325c83 0 146 -19 187 -42z" />
    <glyph glyph-name="D" unicode="D" horiz-adv-x="639" 
d="M598 319c0 -204 -164 -319 -349 -319h-182v638h182c185 0 349 -115 349 -319zM514 318c0 166 -123 249 -279 249h-85v-498h85c156 0 279 83 279 249z" />
    <glyph glyph-name="E" unicode="E" horiz-adv-x="447" 
d="M441 0h-374v638h338v-71h-256v-211h213v-71h-213v-214h292v-71z" />
    <glyph glyph-name="F" unicode="F" horiz-adv-x="419" 
d="M413 567h-264v-211h224v-71h-224v-285h-82v638h346v-71z" />
    <glyph glyph-name="G" unicode="G" horiz-adv-x="677" 
d="M620 57c-61 -47 -137 -68 -233 -68c-175 0 -346 120 -346 330c0 214 176 331 341 331c85 0 155 -20 203 -50l-16 -73c-46 29 -110 50 -178 50c-135 0 -267 -92 -267 -260c0 -167 129 -259 268 -259c65 0 117 15 150 38v154h-158v66h236v-259z" />
    <glyph glyph-name="H" unicode="H" horiz-adv-x="646" 
d="M579 0h-83v285h-347v-285h-82v638h82v-282h347v282h83v-638z" />
    <glyph glyph-name="I" unicode="I" horiz-adv-x="236" 
d="M159 0h-82v638h82v-638z" />
    <glyph glyph-name="J" unicode="J" horiz-adv-x="236" 
d="M159 128c0 -157 -96 -237 -186 -255l-53 55c100 19 157 85 157 208v502h82v-510z" />
    <glyph glyph-name="K" unicode="K" horiz-adv-x="531" 
d="M518 0h-106l-262 303h-1v-303h-82v638h82v-304h1l264 304h93l-273 -312z" />
    <glyph glyph-name="L" unicode="L" horiz-adv-x="444" 
d="M438 0h-371v638h82v-567h289v-71z" />
    <glyph glyph-name="M" unicode="M" horiz-adv-x="813" 
d="M765 0h-78l-26 309c-4 48 -8 106 -10 156h-2c-21 -49 -53 -113 -76 -159l-154 -310h-31l-156 310c-23 45 -51 106 -74 157h-2c-2 -52 -6 -111 -10 -154l-26 -309h-73l53 638h52l172 -343c26 -52 59 -117 82 -171h2c22 54 52 116 80 172l171 342h52z" />
    <glyph glyph-name="N" unicode="N" horiz-adv-x="697" 
d="M630 -12h-24l-306 341c-50 56 -107 123 -151 176l-2 -1c2 -58 2 -115 2 -168v-336h-82v638h57l285 -319c40 -45 98 -111 139 -162l2 1c-2 53 -2 109 -2 159v321h82v-650z" />
    <glyph glyph-name="O" unicode="O" horiz-adv-x="754" 
d="M713 320c0 -203 -163 -331 -336 -331s-336 128 -336 331c0 201 163 330 336 330s336 -129 336 -330zM630 318c0 161 -126 259 -253 259c-129 0 -253 -98 -253 -259s124 -260 253 -260c127 0 253 99 253 260z" />
    <glyph glyph-name="P" unicode="P" horiz-adv-x="487" 
d="M451 462c0 -115 -96 -176 -189 -176h-114v-286h-81v638h194c94 0 190 -61 190 -176zM367 460c0 69 -56 107 -120 107h-99v-213h100c63 0 119 36 119 106z" />
    <glyph glyph-name="Q" unicode="Q" horiz-adv-x="754" 
d="M753 -48l-53 -74c-10 -3 -23 -5 -37 -5c-67 0 -113 15 -178 49c-56 30 -108 53 -141 68c-161 14 -303 140 -303 330c0 201 163 330 336 330s336 -129 336 -330c0 -167 -116 -293 -259 -312v-2c25 -4 53 -14 88 -31c56 -27 98 -37 137 -37c26 0 49 4 74 14zM630 318
c0 161 -126 259 -253 259c-129 0 -253 -98 -253 -259s124 -260 253 -260c127 0 253 99 253 260z" />
    <glyph glyph-name="R" unicode="R" horiz-adv-x="514" 
d="M543 0h-102l-206 286h-87v-286h-81v638h184c94 0 190 -61 190 -176c0 -84 -52 -140 -119 -163zM357 460c0 69 -56 107 -120 107h-89v-213h90c63 0 119 36 119 106z" />
    <glyph glyph-name="S" unicode="S" horiz-adv-x="471" 
d="M430 177c0 -110 -78 -182 -209 -182c-71 0 -131 22 -165 46l-10 83c46 -36 108 -61 178 -61c75 0 128 43 128 107s-37 99 -120 128c-112 38 -168 93 -168 182c0 83 62 164 191 164c60 0 110 -19 135 -36l-16 -66c-24 17 -72 37 -121 37c-73 0 -114 -45 -114 -93
c0 -52 35 -84 109 -110c111 -40 182 -90 182 -199z" />
    <glyph glyph-name="T" unicode="T" horiz-adv-x="518" 
d="M512 567h-212v-567h-82v567h-212v71h506v-71z" />
    <glyph glyph-name="U" unicode="U" horiz-adv-x="643" 
d="M576 223c0 -147 -106 -234 -254 -234s-255 87 -255 234v415h82v-407c0 -103 60 -169 173 -169s174 66 174 169v407h80v-415z" />
    <glyph glyph-name="V" unicode="V" horiz-adv-x="581" 
d="M558 638l-254 -648h-26l-255 648h86l127 -324c19 -48 40 -108 58 -163h2c18 54 38 113 58 163l126 324h78z" />
    <glyph glyph-name="W" unicode="W" horiz-adv-x="916" 
d="M893 638l-226 -648h-28l-122 355c-18 53 -38 108 -58 178h-2c-20 -70 -39 -125 -57 -178l-123 -355h-29l-225 648h83l109 -316c16 -47 37 -102 51 -157h2c15 54 34 109 50 157l108 316h71l110 -316c16 -47 33 -103 48 -157h2c14 53 35 110 51 157l110 316h75z" />
    <glyph glyph-name="X" unicode="X" horiz-adv-x="590" 
d="M549 0h-93l-109 176c-17 27 -36 59 -52 88h-2c-16 -29 -37 -63 -53 -88l-112 -176h-87l205 324l-195 314h93l104 -167c15 -24 35 -57 49 -83h2c14 26 32 58 48 83l105 167h88l-195 -309z" />
    <glyph glyph-name="Y" unicode="Y" horiz-adv-x="615" 
d="M592 638l-245 -344v-294h-80v294l-244 344h90l133 -187c20 -29 44 -64 63 -94h2c19 30 44 67 63 94l133 187h85z" />
    <glyph glyph-name="Z" unicode="Z" horiz-adv-x="527" 
d="M486 0h-445v20l211 365c35 60 77 130 109 181l-1 1h-299v71h413v-20l-213 -366c-35 -59 -75 -127 -108 -180l1 -1h332v-71z" />
    <glyph glyph-name="bracketleft" unicode="[" horiz-adv-x="277" 
d="M271 -218h-204v918h204v-65h-128v-788h128v-65z" />
    <glyph glyph-name="backslash" unicode="\" horiz-adv-x="468" 
d="M504 -131l-58 -30l-408 801l57 30z" />
    <glyph glyph-name="bracketright" unicode="]" horiz-adv-x="277" 
d="M210 -218h-204v65h129v788h-129v65h204v-918z" />
    <glyph glyph-name="asciicircum" unicode="^" 
d="M412 537l-53 -23c-39 24 -80 53 -113 84c-33 -31 -71 -60 -110 -84l-48 21c44 34 100 90 135 139c7 10 20 17 27 17s20 -7 27 -17c35 -49 91 -103 135 -137z" />
    <glyph glyph-name="underscore" unicode="_" 
d="M502 -231h-503v66h503v-66z" />
    <glyph glyph-name="grave" unicode="`" 
d="M296 536l-51 -22c-52 32 -99 68 -139 113c-7 7 -13 16 -13 22c0 13 29 41 42 41c7 0 19 -7 26 -16c35 -49 90 -104 135 -138z" />
    <glyph glyph-name="a" unicode="a" horiz-adv-x="440" 
d="M427 39l-49 -50c-31 7 -66 34 -72 76c-19 -53 -70 -76 -125 -76c-88 0 -145 63 -145 137c0 88 71 135 148 142l113 11v36c0 48 -32 82 -98 82c-45 0 -91 -14 -122 -35l-16 64c38 25 88 38 142 38c99 0 171 -56 171 -158v-195c0 -43 24 -67 53 -72zM297 164v51l-97 -9
c-60 -6 -90 -40 -90 -81c0 -39 31 -70 78 -70c56 0 109 42 109 109z" />
    <glyph glyph-name="b" unicode="b" horiz-adv-x="532" 
d="M496 229c0 -139 -97 -240 -246 -240c-78 0 -152 29 -188 55v668h74v-291c20 21 76 43 131 43c132 0 229 -99 229 -235zM421 227c0 99 -69 170 -161 170c-63 0 -106 -29 -124 -48v-268c20 -12 66 -28 107 -28c109 0 177 71 178 174z" />
    <glyph glyph-name="c" unicode="c" horiz-adv-x="454" 
d="M418 425l-15 -68c-38 24 -78 36 -122 36c-93 0 -171 -67 -171 -168c0 -100 79 -168 172 -168c46 0 82 9 122 30l-8 -69c-33 -16 -74 -24 -120 -24c-126 0 -240 89 -240 232s113 233 240 233c58 0 106 -14 142 -34z" />
    <glyph glyph-name="d" unicode="d" horiz-adv-x="534" 
d="M472 0h-73v50h-1c-21 -30 -67 -61 -140 -61c-107 0 -222 85 -222 237c0 139 99 238 231 238c54 0 109 -22 128 -43v291h77v-712zM395 115v230c-18 20 -59 49 -121 49c-89 0 -160 -69 -160 -169c0 -101 71 -169 160 -169c59 0 101 30 121 59z" />
    <glyph glyph-name="e" unicode="e" horiz-adv-x="488" 
d="M452 290c0 -13 -1 -24 -3 -33l-42 -43h-295c0 -74 62 -160 174 -160c56 0 99 16 132 39l-9 -73c-32 -18 -73 -31 -132 -31c-130 0 -241 97 -241 237c0 149 114 238 221 238c125 0 195 -88 195 -174zM377 288c0 53 -42 112 -116 112c-68 0 -132 -57 -144 -126h259
c1 4 1 9 1 14z" />
    <glyph glyph-name="f" unicode="f" horiz-adv-x="334" 
d="M367 698l-16 -65c-19 8 -45 14 -66 14c-74 0 -116 -43 -116 -131v-63h151l-16 -62h-135v-391h-77v391h-79v62h79v67c0 127 74 192 188 192c34 0 65 -5 87 -14z" />
    <glyph glyph-name="g" unicode="g" horiz-adv-x="461" 
d="M437 -84c0 -84 -81 -147 -200 -147c-122 0 -204 68 -204 160c0 81 53 124 101 134l-48 48c0 34 24 65 62 73c-44 20 -82 65 -82 128c0 88 69 152 168 152c24 0 43 -4 59 -8c16 -5 37 -7 60 -7s52 8 68 17l15 -64c-13 -8 -43 -15 -63 -14c15 -14 28 -42 28 -76
c0 -81 -63 -152 -167 -152c-43 0 -66 -9 -66 -30c0 -8 8 -18 23 -23l122 -43c78 -27 124 -69 124 -148zM330 313c0 47 -41 87 -96 87c-56 0 -97 -40 -97 -87c0 -49 41 -88 97 -88c52 0 96 39 96 88zM364 -83c0 38 -27 67 -75 82l-89 27c-56 0 -96 -43 -96 -97
c0 -49 46 -95 131 -95c84 0 129 43 129 83z" />
    <glyph glyph-name="h" unicode="h" horiz-adv-x="507" 
d="M450 0h-77v295c0 55 -37 102 -115 102c-76 0 -119 -47 -119 -102v-295h-77v712h77v-313h1c19 36 62 65 137 65c100 0 173 -62 173 -162v-302z" />
    <glyph glyph-name="i" unicode="i" horiz-adv-x="213" 
d="M156 592c0 -16 -33 -50 -50 -50c-16 0 -49 34 -49 50c0 17 33 49 49 49c17 0 50 -32 50 -49zM145 0h-78v453h78v-453z" />
    <glyph glyph-name="j" unicode="j" horiz-adv-x="213" 
d="M156 592c0 -16 -33 -50 -50 -50c-16 0 -49 34 -49 50c0 17 33 49 49 49c17 0 50 -32 50 -49zM145 -50c0 -95 -61 -165 -127 -181l-49 49c61 14 98 58 98 138v497h78v-503z" />
    <glyph glyph-name="k" unicode="k" horiz-adv-x="445" 
d="M441 0h-100l-201 217h-1v-217h-77v712h77v-475h1l201 216h91l-205 -223z" />
    <glyph glyph-name="l" unicode="l" horiz-adv-x="221" 
d="M199 36l-53 -53c-33 9 -84 40 -84 120v609h77v-599c0 -43 30 -71 60 -77z" />
    <glyph glyph-name="m" unicode="m" horiz-adv-x="774" 
d="M717 0h-77v299c0 53 -24 98 -105 98c-79 0 -109 -45 -109 -98v-299h-78v299c0 53 -23 98 -104 98c-79 0 -110 -45 -110 -98v-299h-77v453h72v-60h1c16 39 56 71 134 71c59 0 113 -25 136 -72c21 40 77 72 147 72c102 0 170 -60 170 -158v-306z" />
    <glyph glyph-name="n" unicode="n" horiz-adv-x="502" 
d="M445 0h-77v295c0 55 -37 102 -115 102c-76 0 -119 -47 -119 -102v-295h-77v453h71v-63h1c17 41 61 74 143 74c99 0 173 -62 173 -162v-302z" />
    <glyph glyph-name="o" unicode="o" horiz-adv-x="551" 
d="M515 226c0 -139 -104 -237 -239 -237s-240 98 -240 237c0 140 105 238 240 238s239 -98 239 -238zM437 224c0 101 -73 170 -161 170c-89 0 -162 -69 -162 -170c0 -100 73 -168 162 -168c88 0 161 68 161 168z" />
    <glyph glyph-name="p" unicode="p" horiz-adv-x="529" 
d="M493 227c0 -139 -99 -238 -231 -238c-54 0 -109 22 -128 43v-263h-77v684h73v-50h1c21 30 67 61 140 61c107 0 222 -85 222 -237zM415 225c0 101 -71 169 -160 169c-59 0 -101 -30 -121 -59v-230c18 -20 59 -49 121 -49c89 0 160 69 160 169z" />
    <glyph glyph-name="q" unicode="q" horiz-adv-x="527" 
d="M470 -231h-74v263c-20 -21 -72 -43 -126 -43c-132 0 -234 99 -234 235c0 139 98 240 241 240c69 0 113 -23 138 -38l34 34h21v-691zM396 101v258c-18 17 -70 38 -111 38c-102 0 -174 -71 -174 -174c0 -99 74 -170 166 -170c63 0 101 29 119 48z" />
    <glyph glyph-name="r" unicode="r" horiz-adv-x="322" 
d="M312 453l-18 -77c-8 2 -21 5 -34 5c-65 0 -129 -39 -129 -151v-230h-74v453h74v-99h1c15 64 67 105 136 105c13 0 33 -2 44 -6z" />
    <glyph glyph-name="s" unicode="s" horiz-adv-x="368" 
d="M332 123c0 -74 -57 -129 -157 -129c-54 0 -95 14 -125 35l-10 80c33 -29 83 -52 136 -52c47 0 82 25 82 63c0 37 -28 59 -75 76c-85 30 -133 69 -133 140c0 73 60 123 143 123c49 0 95 -18 113 -29l-16 -63c-20 15 -53 30 -98 30c-42 0 -70 -24 -70 -58
c0 -36 25 -52 72 -69c87 -31 138 -72 138 -147z" />
    <glyph glyph-name="t" unicode="t" horiz-adv-x="353" 
d="M341 453l-14 -60h-150v-265c0 -53 28 -72 73 -72c17 0 33 3 44 8l-7 -60c-12 -6 -31 -9 -50 -9c-74 0 -133 44 -133 126v272h-90v60h90v96l73 38v-134h164z" />
    <glyph glyph-name="u" unicode="u" horiz-adv-x="502" 
d="M445 0h-71v63h-1c-17 -41 -61 -74 -143 -74c-99 0 -173 62 -173 162v302h77v-295c0 -55 37 -102 115 -102c76 0 119 47 119 102v295h77v-453z" />
    <glyph glyph-name="v" unicode="v" horiz-adv-x="458" 
d="M435 453l-191 -462h-31l-190 462h78l91 -220c13 -32 27 -73 39 -110h2c12 37 27 77 40 110l90 220h72z" />
    <glyph glyph-name="w" unicode="w" horiz-adv-x="697" 
d="M674 453l-171 -462h-27l-88 234c-14 37 -26 80 -39 122h-2c-12 -42 -26 -86 -39 -120l-87 -236h-28l-170 462h73l78 -212c12 -33 24 -75 33 -108h2c9 32 23 75 35 108l77 212h57l78 -212c13 -34 23 -71 34 -108h2c11 37 22 76 34 108l78 212h70z" />
    <glyph glyph-name="x" unicode="x" horiz-adv-x="444" 
d="M408 0h-83l-69 112c-10 17 -22 38 -32 57h-2c-10 -19 -24 -41 -34 -57l-69 -112h-83l143 230l-136 223h83l64 -107c10 -17 20 -34 30 -52h2c9 17 20 34 31 52l65 107h83l-136 -220z" />
    <glyph glyph-name="y" unicode="y" horiz-adv-x="468" 
d="M445 453l-168 -411c-67 -163 -139 -237 -230 -277l-50 50c85 36 146 93 199 218l-173 420h80l90 -220c13 -32 29 -74 41 -112h2c14 36 33 81 45 111l90 221h74z" />
    <glyph glyph-name="z" unicode="z" horiz-adv-x="428" 
d="M392 0h-356v16l151 248c24 39 53 89 77 125l-1 2h-211v62h322v-16l-152 -248c-24 -40 -50 -82 -77 -125l1 -2h246v-62z" />
    <glyph glyph-name="braceleft" unicode="{" horiz-adv-x="304" 
d="M298 -159l-15 -60c-135 0 -186 109 -186 247c0 94 -23 170 -91 212c68 43 91 119 91 213c0 137 51 246 186 246l15 -60c-90 0 -125 -71 -125 -189c0 -90 -22 -158 -78 -210c56 -50 78 -120 78 -210c0 -118 35 -189 125 -189z" />
    <glyph glyph-name="bar" unicode="|" horiz-adv-x="201" 
d="M134 -231h-67v943h67v-943z" />
    <glyph glyph-name="braceright" unicode="}" horiz-adv-x="304" 
d="M298 240c-68 -42 -91 -118 -91 -212c0 -138 -51 -247 -186 -247l-15 60c90 0 125 71 125 189c0 90 22 160 78 210c-56 52 -78 120 -78 210c0 118 -35 189 -125 189l15 60c135 0 186 -109 186 -246c0 -94 23 -170 91 -213z" />
    <glyph glyph-name="asciitilde" unicode="~" horiz-adv-x="368" 
d="M326 320c-23 -41 -71 -99 -95 -99c-26 0 -72 38 -88 38c-17 0 -43 -37 -55 -52l-46 20c23 41 71 99 95 99c26 0 71 -38 87 -38c17 0 44 37 56 52z" />
    <glyph glyph-name="Adieresis" unicode="&#xc4;" horiz-adv-x="608" 
d="M587 0h-83l-71 172h-259l-70 -172h-81l267 647h30zM405 238l-70 176c-10 25 -21 58 -30 88h-2c-8 -30 -21 -63 -31 -88l-70 -176h203zM425 764c0 -14 -31 -47 -47 -47s-47 33 -47 47c0 16 31 48 47 48s47 -32 47 -48zM275 764c0 -14 -31 -47 -47 -47c-14 0 -47 33 -47 47
c0 16 33 48 47 48c16 0 47 -32 47 -48z" />
    <glyph glyph-name="Aring" unicode="&#xc5;" horiz-adv-x="608" 
d="M587 0h-83l-71 172h-259l-70 -172h-81l267 647h30zM405 238l-70 176c-10 25 -21 58 -30 88h-2c-8 -30 -21 -63 -31 -88l-70 -176h203zM412 811c0 -58 -49 -106 -107 -106s-107 48 -107 106s49 106 107 106s107 -48 107 -106zM358 811c0 33 -22 56 -53 56s-54 -23 -54 -56
c0 -32 23 -56 54 -56s53 24 53 56z" />
    <glyph glyph-name="Ccedilla" unicode="&#xc7;" horiz-adv-x="604" 
d="M563 602l-15 -70c-34 22 -97 43 -163 43c-135 0 -265 -93 -265 -257s128 -257 265 -257c73 0 126 15 167 39l-8 -73c-37 -20 -86 -32 -162 -32l-7 -25c44 -1 95 -39 95 -98c0 -67 -55 -100 -107 -100c-30 0 -55 9 -77 24l10 45c19 -15 43 -22 67 -22c26 0 52 19 52 51
c0 33 -30 50 -47 50c-29 0 -35 17 -31 34l11 42c-156 13 -307 129 -307 323c0 208 172 325 335 325c83 0 146 -19 187 -42z" />
    <glyph glyph-name="Eacute" unicode="&#xc9;" horiz-adv-x="446" 
d="M441 0h-374v638h338v-71h-256v-211h213v-71h-213v-214h292v-71zM376 850c0 -5 -6 -13 -13 -21c-41 -45 -88 -83 -141 -115l-47 20c46 36 100 91 135 140c7 10 19 16 25 16c13 0 41 -28 41 -40z" />
    <glyph glyph-name="Ntilde" unicode="&#xd1;" horiz-adv-x="696" 
d="M630 -12h-24l-306 341c-50 56 -107 123 -151 176l-2 -1c2 -58 2 -115 2 -168v-336h-82v638h57l285 -319c40 -45 98 -111 139 -162l2 1c-2 53 -2 109 -2 159v321h82v-650zM516 847c-27 -47 -81 -115 -109 -115c-31 0 -84 46 -103 46c-20 0 -52 -43 -65 -61l-52 23
c28 47 82 114 110 114c30 0 84 -46 102 -46c20 0 52 43 66 62z" />
    <glyph glyph-name="Odieresis" unicode="&#xd6;" horiz-adv-x="754" 
d="M713 320c0 -203 -163 -331 -336 -331s-336 128 -336 331c0 201 163 330 336 330s336 -129 336 -330zM630 318c0 161 -126 259 -253 259c-129 0 -253 -98 -253 -259s124 -260 253 -260c127 0 253 99 253 260zM498 764c0 -14 -31 -47 -47 -47s-47 33 -47 47
c0 16 31 48 47 48s47 -32 47 -48zM348 764c0 -14 -31 -47 -47 -47c-14 0 -47 33 -47 47c0 16 33 48 47 48c16 0 47 -32 47 -48z" />
    <glyph glyph-name="Udieresis" unicode="&#xdc;" horiz-adv-x="642" 
d="M576 223c0 -147 -106 -234 -254 -234s-255 87 -255 234v415h82v-407c0 -103 60 -169 173 -169s174 66 174 169v407h80v-415zM449 764c0 -14 -31 -47 -47 -47s-47 33 -47 47c0 16 31 48 47 48s47 -32 47 -48zM299 764c0 -14 -31 -47 -47 -47c-14 0 -47 33 -47 47
c0 16 33 48 47 48c16 0 47 -32 47 -48z" />
    <glyph glyph-name="aacute" unicode="&#xe1;" horiz-adv-x="439" 
d="M427 39l-49 -50c-31 7 -66 34 -72 76c-19 -53 -70 -76 -125 -76c-88 0 -145 63 -145 137c0 88 71 135 148 142l113 11v36c0 48 -32 82 -98 82c-45 0 -91 -14 -122 -35l-16 64c38 25 88 38 142 38c99 0 171 -56 171 -158v-195c0 -43 24 -67 53 -72zM297 164v51l-97 -9
c-60 -6 -90 -40 -90 -81c0 -39 31 -70 78 -70c56 0 109 42 109 109zM315 644c0 -4 -5 -11 -11 -17c-35 -39 -75 -71 -120 -98l-40 17c39 30 86 77 115 119c6 8 16 13 22 13c10 0 34 -23 34 -34z" />
    <glyph glyph-name="agrave" unicode="&#xe0;" horiz-adv-x="439" 
d="M427 39l-49 -50c-31 7 -66 34 -72 76c-19 -53 -70 -76 -125 -76c-88 0 -145 63 -145 137c0 88 71 135 148 142l113 11v36c0 48 -32 82 -98 82c-45 0 -91 -14 -122 -35l-16 64c38 25 88 38 142 38c99 0 171 -56 171 -158v-195c0 -43 24 -67 53 -72zM297 164v51l-97 -9
c-60 -6 -90 -40 -90 -81c0 -39 31 -70 78 -70c56 0 109 42 109 109zM268 547l-43 -18c-44 27 -84 57 -119 96c-5 6 -10 13 -10 18c0 11 24 35 35 35c6 0 17 -5 22 -14c30 -41 77 -87 115 -117z" />
    <glyph glyph-name="acircumflex" unicode="&#xe2;" horiz-adv-x="439" 
d="M427 39l-49 -50c-31 7 -66 34 -72 76c-19 -53 -70 -76 -125 -76c-88 0 -145 63 -145 137c0 88 71 135 148 142l113 11v36c0 48 -32 82 -98 82c-45 0 -91 -14 -122 -35l-16 64c38 25 88 38 142 38c99 0 171 -56 171 -158v-195c0 -43 24 -67 53 -72zM297 164v51l-97 -9
c-60 -6 -90 -40 -90 -81c0 -39 31 -70 78 -70c56 0 109 42 109 109zM346 548l-43 -19c-34 21 -69 45 -97 72c-28 -27 -60 -51 -94 -72l-40 17c38 29 86 77 115 118c6 9 16 14 22 14s17 -5 22 -14c29 -41 77 -87 115 -116z" />
    <glyph glyph-name="adieresis" unicode="&#xe4;" horiz-adv-x="439" 
d="M427 39l-49 -50c-31 7 -66 34 -72 76c-19 -53 -70 -76 -125 -76c-88 0 -145 63 -145 137c0 88 71 135 148 142l113 11v36c0 48 -32 82 -98 82c-45 0 -91 -14 -122 -35l-16 64c38 25 88 38 142 38c99 0 171 -56 171 -158v-195c0 -43 24 -67 53 -72zM297 164v51l-97 -9
c-60 -6 -90 -40 -90 -81c0 -39 31 -70 78 -70c56 0 109 42 109 109zM309 571c0 -12 -26 -40 -40 -40c-13 0 -39 28 -39 40c0 14 26 41 39 41c14 0 40 -27 40 -41zM182 571c0 -12 -26 -40 -40 -40c-12 0 -40 28 -40 40c0 14 28 41 40 41c14 0 40 -27 40 -41z" />
    <glyph glyph-name="atilde" unicode="&#xe3;" horiz-adv-x="439" 
d="M427 39l-49 -50c-31 7 -66 34 -72 76c-19 -53 -70 -76 -125 -76c-88 0 -145 63 -145 137c0 88 71 135 148 142l113 11v36c0 48 -32 82 -98 82c-45 0 -91 -14 -122 -35l-16 64c38 25 88 38 142 38c99 0 171 -56 171 -158v-195c0 -43 24 -67 53 -72zM297 164v51l-97 -9
c-60 -6 -90 -40 -90 -81c0 -39 31 -70 78 -70c56 0 109 42 109 109zM355 642c-23 -40 -69 -97 -93 -97c-26 0 -71 38 -87 38c-17 0 -44 -36 -56 -52l-43 20c23 40 69 97 92 97c26 0 72 -39 87 -39c17 0 44 37 56 52z" />
    <glyph glyph-name="aring" unicode="&#xe5;" horiz-adv-x="439" 
d="M427 39l-49 -50c-31 7 -66 34 -72 76c-19 -53 -70 -76 -125 -76c-88 0 -145 63 -145 137c0 88 71 135 148 142l113 11v36c0 48 -32 82 -98 82c-45 0 -91 -14 -122 -35l-16 64c38 25 88 38 142 38c99 0 171 -56 171 -158v-195c0 -43 24 -67 53 -72zM297 164v51l-97 -9
c-60 -6 -90 -40 -90 -81c0 -39 31 -70 78 -70c56 0 109 42 109 109zM293 612c0 -50 -42 -90 -91 -90s-91 40 -91 90c0 49 42 89 91 89s91 -40 91 -89zM247 612c0 27 -18 47 -45 47c-26 0 -45 -20 -45 -47c0 -28 19 -48 45 -48c27 0 45 20 45 48z" />
    <glyph glyph-name="ccedilla" unicode="&#xe7;" horiz-adv-x="454" 
d="M418 425l-15 -68c-38 24 -78 36 -122 36c-93 0 -171 -67 -171 -168c0 -100 79 -168 172 -168c46 0 82 9 122 30l-8 -69c-30 -15 -68 -23 -110 -24l-6 -20c37 -1 81 -33 81 -83c0 -56 -48 -85 -91 -85c-26 0 -47 8 -66 21l9 38c16 -13 36 -19 57 -19c22 0 44 17 44 43
c0 29 -25 43 -40 43c-24 0 -31 14 -27 29l9 34c-118 9 -220 96 -220 231c0 143 113 233 240 233c58 0 106 -14 142 -34z" />
    <glyph glyph-name="eacute" unicode="&#xe9;" horiz-adv-x="488" 
d="M452 290c0 -13 -1 -24 -3 -33l-42 -43h-295c0 -74 62 -160 174 -160c56 0 99 16 132 39l-9 -73c-32 -18 -73 -31 -132 -31c-130 0 -241 97 -241 237c0 149 114 238 221 238c125 0 195 -88 195 -174zM377 288c0 53 -42 112 -116 112c-68 0 -132 -57 -144 -126h259
c1 4 1 9 1 14zM368 644c0 -4 -5 -11 -11 -17c-34 -39 -75 -71 -119 -99l-40 18c38 30 85 77 114 119c6 8 16 13 22 13c11 0 34 -24 34 -34z" />
    <glyph glyph-name="egrave" unicode="&#xe8;" horiz-adv-x="488" 
d="M452 290c0 -13 -1 -24 -3 -33l-42 -43h-295c0 -74 62 -160 174 -160c56 0 99 16 132 39l-9 -73c-32 -18 -73 -31 -132 -31c-130 0 -241 97 -241 237c0 149 114 238 221 238c125 0 195 -88 195 -174zM377 288c0 53 -42 112 -116 112c-68 0 -132 -57 -144 -126h259
c1 4 1 9 1 14zM325 547l-44 -19c-44 28 -84 58 -118 97c-6 6 -11 13 -11 18c0 11 24 35 36 35c6 0 16 -6 22 -14c29 -41 77 -88 115 -117z" />
    <glyph glyph-name="ecircumflex" unicode="&#xea;" horiz-adv-x="488" 
d="M452 290c0 -13 -1 -24 -3 -33l-42 -43h-295c0 -74 62 -160 174 -160c56 0 99 16 132 39l-9 -73c-32 -18 -73 -31 -132 -31c-130 0 -241 97 -241 237c0 149 114 238 221 238c125 0 195 -88 195 -174zM377 288c0 53 -42 112 -116 112c-68 0 -132 -57 -144 -126h259
c1 4 1 9 1 14zM396 548l-43 -19c-34 21 -69 45 -97 72c-28 -27 -60 -51 -93 -72l-40 17c38 29 85 77 114 118c6 9 17 14 22 14c6 0 17 -5 23 -14c29 -41 76 -87 114 -116z" />
    <glyph glyph-name="edieresis" unicode="&#xeb;" horiz-adv-x="488" 
d="M452 290c0 -13 -1 -24 -3 -33l-42 -43h-295c0 -74 62 -160 174 -160c56 0 99 16 132 39l-9 -73c-32 -18 -73 -31 -132 -31c-130 0 -241 97 -241 237c0 149 114 238 221 238c125 0 195 -88 195 -174zM377 288c0 53 -42 112 -116 112c-68 0 -132 -57 -144 -126h259
c1 4 1 9 1 14zM358 571c0 -12 -26 -40 -39 -40c-14 0 -40 28 -40 40c0 14 26 41 40 41c13 0 39 -27 39 -41zM231 571c0 -12 -26 -40 -40 -40c-12 0 -40 28 -40 40c0 14 28 41 40 41c14 0 40 -27 40 -41z" />
    <glyph glyph-name="iacute" unicode="&#xed;" horiz-adv-x="211" 
d="M145 0h-78v453h78v-453zM214 644c0 -4 -5 -11 -11 -17c-34 -39 -75 -71 -119 -99l-40 18c38 30 85 77 114 119c6 8 16 13 22 13c11 0 34 -24 34 -34z" />
    <glyph glyph-name="igrave" unicode="&#xec;" horiz-adv-x="211" 
d="M145 0h-78v453h78v-453zM171 547l-43 -19c-44 28 -84 58 -118 97c-6 6 -11 13 -11 18c0 11 24 35 35 35c6 0 17 -6 23 -14c29 -41 76 -88 114 -117z" />
    <glyph glyph-name="icircumflex" unicode="&#xee;" horiz-adv-x="211" 
d="M145 0h-78v453h78v-453zM245 548l-43 -19c-34 21 -69 45 -97 72c-29 -27 -60 -51 -94 -72l-40 17c38 29 86 77 115 118c6 9 16 14 22 14s16 -5 22 -14c29 -41 77 -87 115 -116z" />
    <glyph glyph-name="idieresis" unicode="&#xef;" horiz-adv-x="211" 
d="M145 0h-78v453h78v-453zM211 571c0 -12 -27 -40 -40 -40c-14 0 -40 28 -40 40c0 14 26 41 40 41c13 0 40 -27 40 -41zM83 571c0 -12 -26 -40 -40 -40c-12 0 -40 28 -40 40c0 14 28 41 40 41c14 0 40 -27 40 -41z" />
    <glyph glyph-name="ntilde" unicode="&#xf1;" horiz-adv-x="501" 
d="M445 0h-77v295c0 55 -37 102 -115 102c-76 0 -119 -47 -119 -102v-295h-77v453h71v-63h1c17 41 61 74 143 74c99 0 173 -62 173 -162v-302zM395 642c-23 -40 -69 -97 -93 -97c-26 0 -71 38 -87 38c-17 0 -44 -36 -56 -52l-43 20c23 40 69 97 93 97c26 0 71 -39 87 -39
c17 0 44 37 56 52z" />
    <glyph glyph-name="oacute" unicode="&#xf3;" horiz-adv-x="551" 
d="M515 226c0 -139 -104 -237 -239 -237s-240 98 -240 237c0 140 105 238 240 238s239 -98 239 -238zM437 224c0 101 -73 170 -161 170c-89 0 -162 -69 -162 -170c0 -100 73 -168 162 -168c88 0 161 68 161 168zM380 644c0 -4 -5 -11 -11 -17c-34 -39 -75 -71 -120 -99
l-40 18c39 30 86 77 115 119c6 8 16 13 22 13c11 0 34 -24 34 -34z" />
    <glyph glyph-name="ograve" unicode="&#xf2;" horiz-adv-x="551" 
d="M515 226c0 -139 -104 -237 -239 -237s-240 98 -240 237c0 140 105 238 240 238s239 -98 239 -238zM437 224c0 101 -73 170 -161 170c-89 0 -162 -69 -162 -170c0 -100 73 -168 162 -168c88 0 161 68 161 168zM342 547l-43 -19c-44 28 -84 58 -118 97c-6 6 -11 13 -11 18
c0 11 24 35 35 35c6 0 17 -6 23 -14c29 -41 76 -88 114 -117z" />
    <glyph glyph-name="ocircumflex" unicode="&#xf4;" horiz-adv-x="551" 
d="M515 226c0 -139 -104 -237 -239 -237s-240 98 -240 237c0 140 105 238 240 238s239 -98 239 -238zM437 224c0 101 -73 170 -161 170c-89 0 -162 -69 -162 -170c0 -100 73 -168 162 -168c88 0 161 68 161 168zM414 548l-43 -19c-34 21 -69 45 -97 72
c-29 -27 -60 -51 -94 -72l-40 17c38 29 86 77 115 118c6 9 16 14 22 14s16 -5 22 -14c29 -41 77 -87 115 -116z" />
    <glyph glyph-name="odieresis" unicode="&#xf6;" horiz-adv-x="551" 
d="M515 226c0 -139 -104 -237 -239 -237s-240 98 -240 237c0 140 105 238 240 238s239 -98 239 -238zM437 224c0 101 -73 170 -161 170c-89 0 -162 -69 -162 -170c0 -100 73 -168 162 -168c88 0 161 68 161 168zM381 571c0 -12 -26 -40 -40 -40c-13 0 -40 28 -40 40
c0 14 27 41 40 41c14 0 40 -27 40 -41zM254 571c0 -12 -27 -40 -40 -40s-40 28 -40 40c0 14 27 41 40 41s40 -27 40 -41z" />
    <glyph glyph-name="otilde" unicode="&#xf5;" horiz-adv-x="551" 
d="M515 226c0 -139 -104 -237 -239 -237s-240 98 -240 237c0 140 105 238 240 238s239 -98 239 -238zM437 224c0 101 -73 170 -161 170c-89 0 -162 -69 -162 -170c0 -100 73 -168 162 -168c88 0 161 68 161 168zM421 642c-23 -40 -69 -97 -93 -97c-26 0 -71 38 -87 38
c-17 0 -44 -36 -56 -52l-43 20c23 40 69 97 93 97c26 0 71 -39 87 -39c17 0 44 37 56 52z" />
    <glyph glyph-name="uacute" unicode="&#xfa;" horiz-adv-x="501" 
d="M445 0h-71v63h-1c-17 -41 -61 -74 -143 -74c-99 0 -173 62 -173 162v302h77v-295c0 -55 37 -102 115 -102c76 0 119 47 119 102v295h77v-453zM362 644c0 -4 -5 -11 -11 -17c-34 -39 -75 -71 -119 -99l-40 18c38 30 85 77 114 119c6 8 16 13 22 13c11 0 34 -24 34 -34z
" />
    <glyph glyph-name="ugrave" unicode="&#xf9;" horiz-adv-x="501" 
d="M445 0h-71v63h-1c-17 -41 -61 -74 -143 -74c-99 0 -173 62 -173 162v302h77v-295c0 -55 37 -102 115 -102c76 0 119 47 119 102v295h77v-453zM312 547l-43 -19c-44 28 -84 58 -118 97c-6 6 -11 13 -11 18c0 11 24 35 36 35c5 0 16 -6 22 -14c29 -41 76 -88 114 -117z" />
    <glyph glyph-name="ucircumflex" unicode="&#xfb;" horiz-adv-x="501" 
d="M445 0h-71v63h-1c-17 -41 -61 -74 -143 -74c-99 0 -173 62 -173 162v302h77v-295c0 -55 37 -102 115 -102c76 0 119 47 119 102v295h77v-453zM389 548l-44 -19c-33 21 -68 45 -97 72c-28 -27 -60 -51 -93 -72l-40 17c38 29 86 77 115 118c6 9 16 14 22 14s16 -5 22 -14
c29 -41 77 -87 115 -116z" />
    <glyph glyph-name="udieresis" unicode="&#xfc;" horiz-adv-x="501" 
d="M445 0h-71v63h-1c-17 -41 -61 -74 -143 -74c-99 0 -173 62 -173 162v302h77v-295c0 -55 37 -102 115 -102c76 0 119 47 119 102v295h77v-453zM357 571c0 -12 -27 -40 -40 -40c-14 0 -40 28 -40 40c0 14 26 41 40 41c13 0 40 -27 40 -41zM229 571c0 -12 -26 -40 -40 -40
c-12 0 -40 28 -40 40c0 14 28 41 40 41c14 0 40 -27 40 -41z" />
    <glyph glyph-name="dagger" unicode="&#x2020;" horiz-adv-x="399" 
d="M357 383l-121 16l-13 -627h-47l-12 627l-122 -16v78l120 -16l-2 112h79l-2 -112l120 16v-78z" />
    <glyph glyph-name="degree" unicode="&#xb0;" horiz-adv-x="299" 
d="M258 543c0 -59 -50 -107 -109 -107s-108 48 -108 107s49 107 108 107s109 -48 109 -107zM201 543c0 32 -21 55 -52 55s-52 -23 -52 -55s21 -55 52 -55s52 23 52 55z" />
    <glyph glyph-name="cent" unicode="&#xa2;" horiz-adv-x="454" 
d="M301 0h-48v85c-116 10 -217 97 -217 231s100 221 217 231v91h48v-90c47 -4 86 -16 117 -33l-15 -68c-38 24 -78 35 -122 35c-93 0 -171 -67 -171 -167c0 -101 79 -168 172 -168c46 0 82 8 122 30l-8 -70c-27 -13 -59 -20 -95 -22v-85z" />
    <glyph glyph-name="sterling" unicode="&#xa3;" horiz-adv-x="433" 
d="M392 56l-15 -67c-38 15 -90 25 -147 25c-58 0 -112 -11 -149 -25l-38 44c31 52 49 119 49 215v50h-79v47h79v109c0 127 74 192 188 192c34 0 65 -5 87 -14l-16 -65c-19 8 -45 14 -66 14c-74 0 -116 -43 -116 -131v-105h123l-11 -47h-112v-56c0 -83 -16 -147 -38 -178
c24 9 71 14 108 14c47 0 105 -6 153 -22z" />
    <glyph glyph-name="section" unicode="&#xa7;" horiz-adv-x="483" 
d="M416 -60c0 -81 -64 -162 -184 -162c-65 0 -108 15 -143 35l16 71c35 -23 76 -37 125 -37c74 0 110 46 110 94c0 18 -8 46 -23 61l-248 257l32 126c-23 31 -34 67 -34 102c0 81 65 162 185 162c65 0 108 -15 143 -35l-16 -71c-35 23 -77 37 -126 37
c-74 0 -110 -46 -110 -94c0 -18 8 -46 23 -61l249 -257l-32 -126c23 -31 33 -67 33 -102zM362 136l-222 228l-18 -73l221 -228z" />
    <glyph glyph-name="bullet" unicode="&#x2022;" horiz-adv-x="364" 
d="M322 277c0 -81 -60 -138 -139 -138s-141 57 -141 138c0 82 62 139 141 139s139 -57 139 -139z" />
    <glyph glyph-name="paragraph" unicode="&#xb6;" horiz-adv-x="391" 
d="M385 580h-68v-630c0 -95 -61 -165 -127 -181l-50 49c61 14 99 58 99 138v340h-10c-100 0 -193 59 -193 173c0 115 93 174 194 174h155v-63z" />
    <glyph glyph-name="germandbls" unicode="&#xdf;" horiz-adv-x="584" 
d="M548 121c0 -74 -57 -132 -160 -132c-54 0 -103 17 -130 36v75c33 -25 76 -45 131 -45c47 0 82 25 82 63c0 37 -28 59 -75 76c-87 31 -136 73 -136 145c0 75 64 126 146 128c4 16 6 28 6 44c0 68 -49 136 -132 136c-67 0 -111 -43 -111 -131v-516h-77v391h-79v62h79v67
c0 127 75 192 188 192c125 0 207 -80 207 -212c0 -29 -5 -67 -13 -93c-88 0 -139 -21 -139 -66c0 -35 25 -53 73 -70c89 -32 140 -73 140 -150z" />
    <glyph glyph-name="registered" unicode="&#xae;" horiz-adv-x="466" 
d="M430 455c0 -114 -87 -195 -197 -195c-111 0 -197 81 -197 195s86 195 197 195c110 0 197 -81 197 -195zM390 455c0 94 -68 159 -157 159c-90 0 -158 -65 -158 -159c0 -95 68 -159 158 -159c89 0 157 64 157 159zM334 358l-35 -23l-64 96h-31v-96h-42v239h73
c40 0 77 -28 77 -71c0 -28 -15 -50 -36 -61zM270 503c0 21 -16 34 -41 34h-25v-69h25c25 0 41 14 41 35z" />
    <glyph glyph-name="copyright" unicode="&#xa9;" horiz-adv-x="612" 
d="M570 250c0 -154 -116 -263 -264 -263s-265 109 -265 263c0 155 117 263 265 263s264 -108 264 -263zM523 250c0 126 -90 220 -217 220s-218 -94 -218 -220c0 -125 90 -220 218 -220c126 0 217 95 217 220zM404 372l-11 -53c-18 13 -48 22 -72 22c-51 0 -91 -36 -91 -89
s41 -89 91 -89c25 0 49 5 73 19l-6 -54c-19 -11 -43 -17 -70 -17c-76 0 -146 54 -146 142c0 87 69 142 146 142c35 0 67 -9 86 -23z" />
    <glyph glyph-name="trademark" unicode="&#x2122;" horiz-adv-x="416" 
d="M380 453h-32l-9 112l-58 -113h-11l-56 112l-9 -111h-31l15 185h22l67 -133l65 133h22zM162 609h-55v-156h-31v156h-55v29h141v-29z" />
    <glyph glyph-name="acute" unicode="&#xb4;" 
d="M402 650c0 -5 -6 -13 -13 -21c-41 -45 -88 -83 -141 -115l-47 20c46 36 100 91 135 140c7 10 19 16 25 16c13 0 41 -28 41 -40z" />
    <glyph glyph-name="dieresis" unicode="&#xa8;" 
d="M372 564c0 -14 -31 -47 -47 -47s-47 33 -47 47c0 16 31 48 47 48s47 -32 47 -48zM222 564c0 -14 -31 -47 -47 -47c-14 0 -47 33 -47 47c0 16 33 48 47 48c16 0 47 -32 47 -48z" />
    <glyph glyph-name="notequal" unicode="&#x2260;" horiz-adv-x="626" 
d="M658 698l-15 -65c-19 8 -45 14 -66 14c-74 0 -116 -43 -116 -131v-63h137l-13 -62h-124v-391h-77v391h-215v-391h-77v391h-79v62h79v67c0 127 74 192 188 192c65 0 116 -22 155 -49c33 32 80 49 137 49c34 0 64 -5 86 -14zM398 605c-31 26 -74 42 -113 42
c-74 0 -116 -43 -116 -131v-63h215v67c0 33 5 61 14 85z" />
    <glyph glyph-name="AE" unicode="&#xc6;" horiz-adv-x="801" 
d="M795 0h-373v172h-216l-100 -172h-83l370 638h367v-71h-256v-211h212v-71h-212v-214h291v-71zM423 567l-2 1c-16 -38 -36 -78 -56 -113l-125 -217h182v219c0 44 1 69 1 110z" />
    <glyph glyph-name="Oslash" unicode="&#xd8;" horiz-adv-x="754" 
d="M713 320c0 -203 -163 -331 -336 -331c-68 0 -134 19 -189 55l-60 -74l-38 32l58 73c-65 58 -107 142 -107 245c0 201 163 330 336 330c68 0 134 -20 190 -56l59 73l39 -32l-58 -72c64 -58 106 -141 106 -243zM630 318c0 77 -29 140 -73 184l-323 -400
c42 -28 92 -44 143 -44c127 0 253 99 253 260zM519 534c-42 28 -92 43 -142 43c-129 0 -253 -98 -253 -259c0 -77 28 -139 72 -184z" />
    <glyph glyph-name="infinity" unicode="&#x221e;" horiz-adv-x="809" 
d="M752 0h-77v391h-214v-391h-77v391h-215v-391h-77v391h-79v62h79v67c0 127 74 192 188 192c65 0 116 -22 155 -49c33 32 80 49 137 49c34 0 64 -5 86 -14l-15 -65c-19 8 -45 14 -66 14c-74 0 -116 -43 -116 -131v-63h291v-453zM398 605c-31 26 -74 42 -113 42
c-74 0 -116 -43 -116 -131v-63h215v67c0 33 5 61 14 85z" />
    <glyph glyph-name="plusminus" unicode="&#xb1;" horiz-adv-x="834" 
d="M812 36l-53 -53c-33 9 -84 40 -84 120v511c-24 19 -61 33 -98 33c-74 0 -116 -43 -116 -131v-63h107v-62h-107v-391h-77v391h-215v-391h-77v391h-79v62h79v67c0 127 74 192 188 192c65 0 116 -22 155 -49c33 32 80 49 137 49c81 0 142 -35 180 -69v-530
c0 -43 30 -71 60 -77zM398 605c-31 26 -74 42 -113 42c-74 0 -116 -43 -116 -131v-63h215v67c0 33 5 61 14 85z" />
    <glyph glyph-name="lessequal" unicode="&#x2264;" horiz-adv-x="458" 
d="M416 109l-374 123v91l374 123v-70l-312 -99l312 -99v-69zM416 0h-374v66h374v-66z" />
    <glyph glyph-name="greaterequal" unicode="&#x2265;" horiz-adv-x="458" 
d="M416 232l-374 -123v69l312 99l-312 99v70l374 -123v-91zM416 0h-374v66h374v-66z" />
    <glyph glyph-name="yen" unicode="&#xa5;" horiz-adv-x="508" 
d="M485 638l-174 -338h124v-47h-141v-253h-80v253h-141v47h124l-174 338h85l102 -198c15 -29 33 -69 47 -100h2c14 31 33 71 48 100l102 198h76z" />
    <glyph glyph-name="mu" unicode="&#xb5;" horiz-adv-x="611" 
d="M572 152c0 -36 -30 -55 -55 -55v-97h-472v453h472v-246zM489 233v153h-153zM233 386h-160c0 -44 35 -80 79 -80s81 36 81 80zM489 27v81l-382 180c-13 6 -24 15 -34 27v-288h416z" />
    <glyph glyph-name="mu" unicode="&#x3bc;" horiz-adv-x="611" 
d="M572 152c0 -36 -30 -55 -55 -55v-97h-472v453h472v-246zM489 233v153h-153zM233 386h-160c0 -44 35 -80 79 -80s81 36 81 80zM489 27v81l-382 180c-13 6 -24 15 -34 27v-288h416z" />
    <glyph glyph-name="partialdiff" unicode="&#x2202;" horiz-adv-x="611" 
d="M572 152c0 -36 -30 -55 -55 -55v-97h-472v453h472v-246zM489 233v153h-153zM233 386h-160c0 -44 35 -80 79 -80s81 36 81 80zM489 27v81l-382 180c-13 6 -24 15 -34 27v-288h416z" />
    <glyph glyph-name="summation" unicode="&#x2211;" horiz-adv-x="611" 
d="M572 152c0 -36 -30 -55 -55 -55v-97h-472v453h472v-246zM489 233v153h-153zM233 386h-160c0 -44 35 -80 79 -80s81 36 81 80zM489 27v81l-382 180c-13 6 -24 15 -34 27v-288h416z" />
    <glyph glyph-name="product" unicode="&#x220f;" horiz-adv-x="466" 
d="M430 455c0 -114 -87 -195 -197 -195c-111 0 -197 81 -197 195s86 195 197 195c110 0 197 -81 197 -195zM390 455c0 94 -68 159 -157 159c-90 0 -158 -65 -158 -159c0 -95 68 -159 158 -159c89 0 157 64 157 159zM324 503c0 -44 -37 -72 -77 -72h-30v-96h-43v239h73
c40 0 77 -28 77 -71zM282 503c0 21 -15 34 -40 34h-25v-69h25c25 0 40 14 40 35z" />
    <glyph glyph-name="pi" unicode="&#x3c0;" horiz-adv-x="611" 
d="M572 152c0 -36 -30 -55 -55 -55v-97h-472v453h472v-246zM489 233v153h-153zM233 386h-160c0 -44 35 -80 79 -80s81 36 81 80zM489 27v81l-382 180c-13 6 -24 15 -34 27v-288h416z" />
    <glyph glyph-name="integral" unicode="&#x222b;" horiz-adv-x="611" 
d="M572 152c0 -36 -30 -55 -55 -55v-97h-472v453h472v-246zM489 233v153h-153zM233 386h-160c0 -44 35 -80 79 -80s81 36 81 80zM489 27v81l-382 180c-13 6 -24 15 -34 27v-288h416z" />
    <glyph glyph-name="ordfeminine" unicode="&#xaa;" horiz-adv-x="376" 
d="M360 315l-46 -44c-25 5 -51 23 -59 52c-18 -37 -58 -52 -99 -52c-72 0 -120 50 -120 110c0 72 61 109 122 115l87 9v25c0 36 -24 61 -75 61c-36 0 -72 -10 -100 -29l-14 56c33 22 73 32 117 32c81 0 140 -44 140 -126v-154c0 -33 19 -50 47 -55zM245 412v37l-82 -8
c-37 -4 -61 -30 -61 -62c0 -30 24 -53 56 -53c39 0 87 31 87 86zM233 153c0 -14 -31 -47 -47 -47c-14 0 -47 33 -47 47c0 16 33 47 47 47c16 0 47 -31 47 -47z" />
    <glyph glyph-name="ordmasculine" unicode="&#xba;" horiz-adv-x="459" 
d="M423 460c0 -111 -83 -189 -193 -189s-194 78 -194 189c0 112 84 190 194 190s193 -78 193 -190zM355 460c0 79 -57 133 -125 133c-69 0 -126 -54 -126 -133c0 -78 57 -132 126 -132c68 0 125 54 125 132zM276 153c0 -14 -31 -47 -47 -47c-14 0 -47 33 -47 47
c0 16 33 47 47 47c16 0 47 -31 47 -47z" />
    <glyph glyph-name="Omega" unicode="&#x3a9;" horiz-adv-x="611" 
d="M572 152c0 -36 -30 -55 -55 -55v-97h-472v453h472v-246zM489 233v153h-153zM233 386h-160c0 -44 35 -80 79 -80s81 36 81 80zM489 27v81l-382 180c-13 6 -24 15 -34 27v-288h416z" />
    <glyph glyph-name="Omega" unicode="&#x2126;" horiz-adv-x="611" 
d="M572 152c0 -36 -30 -55 -55 -55v-97h-472v453h472v-246zM489 233v153h-153zM233 386h-160c0 -44 35 -80 79 -80s81 36 81 80zM489 27v81l-382 180c-13 6 -24 15 -34 27v-288h416z" />
    <glyph glyph-name="ae" unicode="&#xe6;" horiz-adv-x="731" 
d="M695 290c0 -13 -1 -24 -3 -33l-43 -43h-294c-1 -74 62 -160 173 -160c57 0 100 16 132 39l-8 -73c-32 -18 -73 -31 -133 -31c-75 0 -148 35 -184 91c-30 -66 -95 -91 -153 -91c-89 0 -146 62 -146 136c0 88 71 134 148 142l100 10c3 17 7 32 14 47c-4 46 -38 76 -100 76
c-45 0 -91 -14 -121 -35l-16 61c38 25 87 38 141 38c63 0 119 -24 144 -73c40 48 98 73 154 73c125 0 196 -88 195 -174zM620 288c0 53 -42 112 -116 112c-68 0 -132 -57 -144 -126h259c1 4 1 9 1 14zM295 137c-10 25 -14 51 -15 78l-81 -7c-61 -5 -92 -41 -92 -84
c0 -40 33 -72 80 -72c49 0 97 32 108 85z" />
    <glyph glyph-name="oslash" unicode="&#xf8;" horiz-adv-x="551" 
d="M515 226c0 -139 -104 -237 -239 -237c-49 0 -94 14 -132 37l-45 -56l-36 31l43 54c-44 42 -70 101 -70 171c0 140 105 238 240 238c48 0 93 -13 130 -36l43 54l36 -30l-41 -52c44 -42 71 -103 71 -174zM437 224c0 47 -15 87 -41 116l-208 -259c25 -16 56 -25 88 -25
c88 0 161 68 161 168zM359 371c-25 15 -53 23 -83 23c-89 0 -162 -69 -162 -170c0 -44 14 -82 38 -111z" />
    <glyph glyph-name="questiondown" unicode="&#xbf;" horiz-adv-x="366" 
d="M251 595c0 -17 -37 -54 -55 -54c-19 0 -55 37 -55 54c0 18 36 55 55 55c18 0 55 -37 55 -55zM337 25c-31 -20 -74 -35 -126 -35c-99 0 -173 58 -173 157c0 61 38 106 85 155c33 34 46 67 46 103c0 19 -2 44 -6 62l70 -16c4 -18 7 -34 7 -53c0 -55 -22 -109 -59 -146
c-36 -37 -61 -66 -61 -112c0 -39 34 -81 90 -81c45 0 80 15 111 35z" />
    <glyph glyph-name="exclamdown" unicode="&#xa1;" horiz-adv-x="253" 
d="M178 593c0 -17 -37 -54 -55 -54s-55 37 -55 54c0 18 37 55 55 55s55 -37 55 -55zM171 0h-91l14 465l64 -16z" />
    <glyph glyph-name="logicalnot" unicode="&#xac;" horiz-adv-x="504" 
d="M442 139h-68v105h-332v66h400v-171z" />
    <glyph glyph-name="radical" unicode="&#x221a;" horiz-adv-x="567" 
d="M554 645h-80l-273 -652h-31l-99 234h-53l10 73h91l48 -112c8 -19 14 -35 21 -56h2c20 53 51 132 77 193l162 387h125v-67z" />
    <glyph glyph-name="florin" unicode="&#x192;" horiz-adv-x="426" 
d="M436 646l-14 -64c-12 2 -26 3 -38 3c-74 0 -124 -43 -139 -131l-27 -154h115l-11 -47h-112l-55 -303c-18 -98 -88 -165 -157 -181l-50 49c62 15 118 60 132 138l53 297h-80v47h87l28 158c22 127 109 192 223 192c17 0 31 -2 45 -4z" />
    <glyph glyph-name="approxequal" unicode="&#x2248;" horiz-adv-x="459" 
d="M415 357c-28 -32 -65 -48 -117 -48c-29 0 -51 10 -72 19c-24 11 -47 22 -71 22c-41 0 -71 -18 -96 -45l-15 63c28 32 66 49 118 49c29 0 50 -9 71 -19c23 -10 44 -23 71 -23c42 0 73 18 97 45zM415 185c-28 -32 -65 -48 -117 -48c-29 0 -51 10 -72 19
c-24 11 -47 22 -71 22c-41 0 -71 -18 -96 -45l-15 63c28 32 66 49 118 49c29 0 50 -9 71 -19c23 -10 44 -23 71 -23c42 0 73 18 97 45z" />
    <glyph glyph-name="Delta" unicode="&#x394;" horiz-adv-x="611" 
d="M572 152c0 -36 -30 -55 -55 -55v-97h-472v453h472v-246zM489 233v153h-153zM233 386h-160c0 -44 35 -80 79 -80s81 36 81 80zM489 27v81l-382 180c-13 6 -24 15 -34 27v-288h416z" />
    <glyph glyph-name="Delta" unicode="&#x2206;" horiz-adv-x="611" 
d="M572 152c0 -36 -30 -55 -55 -55v-97h-472v453h472v-246zM489 233v153h-153zM233 386h-160c0 -44 35 -80 79 -80s81 36 81 80zM489 27v81l-382 180c-13 6 -24 15 -34 27v-288h416z" />
    <glyph glyph-name="guillemotleft" unicode="&#xab;" horiz-adv-x="396" 
d="M354 110l-11 -27c-29 39 -76 88 -118 119c-9 6 -15 18 -15 24s6 18 15 24c42 31 89 80 118 119l11 -27c-17 -41 -36 -80 -59 -116c23 -36 42 -75 59 -116zM167 110l-12 -27c-29 39 -75 88 -117 119c-9 6 -15 18 -15 24s6 18 15 24c42 31 88 80 117 119l12 -27
c-17 -41 -36 -80 -59 -116c23 -36 42 -75 59 -116z" />
    <glyph glyph-name="guillemotright" unicode="&#xbb;" horiz-adv-x="396" 
d="M373 226c0 -6 -6 -18 -15 -24c-42 -31 -90 -80 -118 -119l-11 27c16 41 35 80 59 116c-24 36 -43 75 -59 116l11 27c28 -39 76 -88 118 -119c9 -6 15 -18 15 -24zM185 226c0 -6 -6 -18 -15 -24c-42 -31 -89 -80 -117 -119l-12 27c16 41 35 80 59 116
c-24 36 -43 75 -59 116l12 27c28 -39 75 -88 117 -119c9 -6 15 -18 15 -24z" />
    <glyph glyph-name="ellipsis" unicode="&#x2026;" horiz-adv-x="578" 
d="M537 45c0 -18 -37 -55 -56 -55c-18 0 -55 37 -55 55c0 17 37 54 55 54c19 0 56 -37 56 -54zM344 45c0 -18 -37 -55 -55 -55c-19 0 -55 37 -55 55c0 17 36 54 55 54c18 0 55 -37 55 -54zM151 45c0 -18 -37 -55 -55 -55s-55 37 -55 55c0 17 37 54 55 54s55 -37 55 -54z" />
    <glyph glyph-name="Agrave" unicode="&#xc0;" horiz-adv-x="608" 
d="M587 0h-83l-71 172h-259l-70 -172h-81l267 647h30zM405 238l-70 176c-10 25 -21 58 -30 88h-2c-8 -30 -21 -63 -31 -88l-70 -176h203zM386 736l-51 -22c-52 32 -99 68 -139 113c-7 7 -13 16 -13 22c0 13 29 41 42 41c7 0 19 -7 26 -16c35 -49 90 -104 135 -138z" />
    <glyph glyph-name="Atilde" unicode="&#xc3;" horiz-adv-x="608" 
d="M587 0h-83l-71 172h-259l-70 -172h-81l267 647h30zM405 238l-70 176c-10 25 -21 58 -30 88h-2c-8 -30 -21 -63 -31 -88l-70 -176h203zM476 847c-27 -47 -81 -115 -109 -115c-31 0 -84 46 -103 46c-20 0 -52 -43 -65 -61l-52 23c28 47 82 114 110 114c30 0 84 -46 102 -46
c20 0 52 43 66 62z" />
    <glyph glyph-name="Otilde" unicode="&#xd5;" horiz-adv-x="754" 
d="M713 320c0 -203 -163 -331 -336 -331s-336 128 -336 331c0 201 163 330 336 330s336 -129 336 -330zM630 318c0 161 -126 259 -253 259c-129 0 -253 -98 -253 -259s124 -260 253 -260c127 0 253 99 253 260zM549 847c-27 -47 -81 -115 -109 -115c-31 0 -84 46 -103 46
c-20 0 -52 -43 -65 -61l-52 23c28 47 82 114 110 114c30 0 84 -46 102 -46c20 0 52 43 66 62z" />
    <glyph glyph-name="OE" unicode="&#x152;" horiz-adv-x="830" 
d="M824 0h-364c-24 -4 -51 -6 -83 -6c-166 0 -336 119 -336 325c0 208 172 325 335 325c29 0 56 -2 79 -6h334v-67h-259v-216h214v-68h-214v-219h294v-68zM451 66l1 502c-22 4 -44 7 -67 7c-135 0 -265 -93 -265 -257s128 -257 265 -257c23 0 46 2 66 5z" />
    <glyph glyph-name="oe" unicode="&#x153;" horiz-adv-x="892" 
d="M855 290c0 -13 0 -24 -2 -33l-43 -43h-294c-1 -74 61 -160 173 -160c56 0 99 16 132 39l-9 -73c-31 -18 -72 -31 -132 -31c-86 0 -173 45 -202 121c-35 -79 -115 -121 -202 -121c-135 0 -240 98 -240 237s105 238 240 238c87 0 173 -45 201 -120c24 74 113 120 184 120
c124 0 194 -88 194 -174zM781 288c0 53 -43 112 -116 112c-68 0 -133 -57 -144 -126h259c1 4 1 9 1 14zM440 224c0 102 -74 173 -164 173c-91 0 -165 -70 -165 -172s74 -172 165 -172c90 0 164 70 164 171z" />
    <glyph glyph-name="endash" unicode="&#x2013;" 
d="M502 199h-502v54h502v-54z" />
    <glyph glyph-name="emdash" unicode="&#x2014;" horiz-adv-x="1000" 
d="M1002 199h-1002v54h1002v-54z" />
    <glyph glyph-name="quotedblleft" unicode="&#x201c;" horiz-adv-x="355" 
d="M313 485c0 -19 -37 -53 -53 -53s-54 33 -54 53c0 49 41 126 79 164l28 -5c-27 -33 -46 -81 -46 -114c19 -4 46 -31 46 -45zM149 485c0 -19 -37 -53 -53 -53s-54 33 -54 53c0 49 41 126 79 164l28 -5c-27 -33 -46 -81 -46 -114c19 -4 46 -31 46 -45z" />
    <glyph glyph-name="quotedblright" unicode="&#x201d;" horiz-adv-x="355" 
d="M313 597c0 -49 -41 -126 -79 -164l-28 5c27 33 46 81 46 114c-19 4 -46 31 -46 45c0 19 37 53 53 53s54 -33 54 -53zM149 597c0 -49 -41 -126 -79 -164l-28 5c27 33 46 81 46 114c-19 4 -46 31 -46 45c0 19 37 53 53 53s54 -33 54 -53z" />
    <glyph glyph-name="quoteleft" unicode="&#x2018;" horiz-adv-x="191" 
d="M149 485c0 -19 -37 -53 -53 -53s-54 33 -54 53c0 49 41 126 79 164l28 -5c-27 -33 -46 -81 -46 -114c19 -4 46 -31 46 -45z" />
    <glyph glyph-name="quoteright" unicode="&#x2019;" horiz-adv-x="191" 
d="M149 597c0 -49 -41 -126 -79 -164l-28 5c27 33 46 81 46 114c-19 4 -46 31 -46 45c0 19 37 53 53 53s54 -33 54 -53z" />
    <glyph glyph-name="divide" unicode="&#xf7;" horiz-adv-x="458" 
d="M277 401c0 -16 -32 -48 -48 -48s-48 32 -48 48c0 15 32 47 48 47s48 -32 48 -47zM416 244h-374v66h374v-66zM277 154c0 -16 -32 -48 -48 -48s-48 32 -48 48c0 15 32 47 48 47s48 -32 48 -47z" />
    <glyph glyph-name="lozenge" unicode="&#x25ca;" horiz-adv-x="588" 
d="M506 277l-217 -217l-217 217l217 217zM433 277l-144 143l-144 -143l144 -144z" />
    <glyph glyph-name="ydieresis" unicode="&#xff;" horiz-adv-x="468" 
d="M445 453l-168 -411c-67 -163 -139 -237 -230 -277l-50 50c85 36 146 93 199 218l-173 420h80l90 -220c13 -32 29 -74 41 -112h2c14 36 33 81 45 111l90 221h74zM347 568c0 -12 -26 -40 -40 -40s-40 28 -40 40c0 14 26 41 40 41s40 -27 40 -41zM219 568
c0 -12 -26 -40 -40 -40c-12 0 -39 28 -39 40c0 14 27 41 39 41c14 0 40 -27 40 -41z" />
    <glyph glyph-name="Ydieresis" unicode="&#x178;" horiz-adv-x="613" 
d="M592 638l-245 -344v-294h-80v294l-244 344h90l133 -187c20 -29 44 -64 63 -94h2c19 30 44 67 63 94l133 187h85zM422 764c0 -14 -31 -47 -47 -47s-47 33 -47 47c0 16 31 48 47 48s47 -32 47 -48zM272 764c0 -14 -31 -47 -47 -47c-14 0 -47 33 -47 47c0 16 33 48 47 48
c16 0 47 -32 47 -48z" />
    <glyph glyph-name="fraction" unicode="&#x2044;" horiz-adv-x="638" 
d="M601 628l-525 -649l-38 32l524 649z" />
    <glyph glyph-name="fraction" unicode="&#x2215;" horiz-adv-x="638" 
d="M601 628l-525 -649l-38 32l524 649z" />
    <glyph glyph-name="currency" unicode="&#xa4;" horiz-adv-x="492" 
d="M346 288l-9 -45h-165c20 -125 92 -186 167 -186c42 0 74 8 101 25l-8 -69c-21 -14 -60 -21 -99 -21c-114 0 -213 86 -237 250h-82v46h78c0 10 -1 20 -1 31c0 12 1 24 1 35h-78v46h83c25 160 124 246 236 246c56 0 91 -13 118 -28l-14 -65c-25 17 -59 28 -99 28
c-77 0 -145 -61 -166 -181h184l-9 -46h-180c-1 -11 -1 -23 -1 -36c0 -10 0 -20 1 -30h179z" />
    <glyph glyph-name="guilsinglleft" unicode="&#x2039;" horiz-adv-x="208" 
d="M167 110l-12 -27c-29 39 -75 88 -117 119c-9 6 -15 18 -15 24s6 18 15 24c42 31 88 80 117 119l12 -27c-17 -41 -36 -80 -59 -116c23 -36 42 -75 59 -116z" />
    <glyph glyph-name="guilsinglright" unicode="&#x203a;" horiz-adv-x="208" 
d="M185 226c0 -6 -6 -18 -15 -24c-42 -31 -89 -80 -117 -119l-12 27c16 41 35 80 59 116c-24 36 -43 75 -59 116l12 27c28 -39 75 -88 117 -119c9 -6 15 -18 15 -24z" />
    <glyph glyph-name="daggerdbl" unicode="&#x2021;" horiz-adv-x="399" 
d="M357 -132l-120 16l2 -112h-79l2 112l-120 -16v78l122 -16l4 234l-4 235l-122 -16v78l120 -16l-2 112h79l-2 -112l120 16v-78l-121 16l-4 -235l4 -234l121 16v-78z" />
    <glyph glyph-name="periodcentered" unicode="&#xb7;" horiz-adv-x="192" 
d="M151 271c0 -18 -37 -55 -55 -55s-55 37 -55 55c0 17 37 54 55 54s55 -37 55 -54z" />
    <glyph glyph-name="periodcentered" unicode="&#x2219;" horiz-adv-x="192" 
d="M151 271c0 -18 -37 -55 -55 -55s-55 37 -55 55c0 17 37 54 55 54s55 -37 55 -54z" />
    <glyph glyph-name="quotesinglbase" unicode="&#x201a;" horiz-adv-x="192" 
d="M151 45c0 -51 -43 -130 -81 -168l-28 5c28 34 46 83 46 117c-19 3 -47 32 -47 46c0 20 38 54 55 54c16 0 55 -34 55 -54z" />
    <glyph glyph-name="quotedblbase" unicode="&#x201e;" horiz-adv-x="358" 
d="M317 45c0 -51 -43 -130 -81 -168l-29 5c28 34 47 83 47 117c-19 3 -47 32 -47 46c0 20 38 54 55 54c16 0 55 -34 55 -54zM151 45c0 -51 -43 -130 -81 -168l-28 5c28 34 46 83 46 117c-19 3 -47 32 -47 46c0 20 38 54 55 54c16 0 55 -34 55 -54z" />
    <glyph glyph-name="perthousand" unicode="&#x2030;" horiz-adv-x="1050" 
d="M1010 128c0 -83 -59 -139 -139 -139c-79 0 -138 56 -138 139c0 81 59 139 138 139c80 0 139 -58 139 -139zM946 128c0 49 -34 79 -75 79s-74 -30 -74 -79c0 -50 33 -81 74 -81s75 31 75 81zM658 128c0 -83 -59 -139 -138 -139s-139 56 -139 139c0 81 60 139 139 139
s138 -58 138 -139zM595 128c0 49 -34 79 -75 79s-75 -30 -75 -79c0 -50 34 -81 75 -81s75 31 75 81zM628 628l-525 -649l-38 32l525 649zM313 511c0 -83 -59 -140 -139 -140c-79 0 -138 57 -138 140c0 82 59 139 138 139c80 0 139 -57 139 -139zM249 511c0 49 -34 79 -75 79
s-74 -30 -74 -79c0 -50 33 -80 74 -80s75 30 75 80z" />
    <glyph glyph-name="Acircumflex" unicode="&#xc2;" horiz-adv-x="608" 
d="M587 0h-83l-71 172h-259l-70 -172h-81l267 647h30zM405 238l-70 176c-10 25 -21 58 -30 88h-2c-8 -30 -21 -63 -31 -88l-70 -176h203zM466 736l-51 -22c-39 24 -81 53 -114 85c-33 -32 -71 -61 -110 -85l-47 20c45 35 101 91 135 139c7 10 19 17 26 17s19 -7 26 -16
c34 -49 90 -104 135 -138z" />
    <glyph glyph-name="Ecircumflex" unicode="&#xca;" horiz-adv-x="446" 
d="M441 0h-374v638h338v-71h-256v-211h213v-71h-213v-214h292v-71zM408 736l-51 -22c-39 24 -81 53 -114 85c-33 -32 -71 -61 -110 -85l-47 20c45 35 101 91 135 139c7 10 19 17 26 17s19 -7 26 -16c34 -49 90 -104 135 -138z" />
    <glyph glyph-name="Aacute" unicode="&#xc1;" horiz-adv-x="608" 
d="M587 0h-83l-71 172h-259l-70 -172h-81l267 647h30zM405 238l-70 176c-10 25 -21 58 -30 88h-2c-8 -30 -21 -63 -31 -88l-70 -176h203zM427 850c0 -5 -6 -13 -13 -21c-41 -45 -88 -83 -141 -115l-47 20c46 36 100 91 135 140c7 10 19 16 25 16c13 0 41 -28 41 -40z" />
    <glyph glyph-name="Edieresis" unicode="&#xcb;" horiz-adv-x="446" 
d="M441 0h-374v638h338v-71h-256v-211h213v-71h-213v-214h292v-71zM366 764c0 -14 -31 -47 -47 -47s-47 33 -47 47c0 16 31 48 47 48s47 -32 47 -48zM216 764c0 -14 -31 -47 -47 -47c-14 0 -47 33 -47 47c0 16 33 48 47 48c16 0 47 -32 47 -48z" />
    <glyph glyph-name="Egrave" unicode="&#xc8;" horiz-adv-x="446" 
d="M441 0h-374v638h338v-71h-256v-211h213v-71h-213v-214h292v-71zM321 736l-51 -22c-52 32 -99 68 -139 113c-7 7 -13 16 -13 22c0 13 29 41 42 41c7 0 19 -7 26 -16c35 -49 90 -104 135 -138z" />
    <glyph glyph-name="Iacute" unicode="&#xcd;" horiz-adv-x="234" 
d="M159 0h-82v638h82v-638zM238 850c0 -5 -6 -13 -13 -21c-41 -45 -88 -83 -141 -115l-47 20c46 36 100 91 135 140c7 10 19 16 25 16c13 0 41 -28 41 -40z" />
    <glyph glyph-name="Icircumflex" unicode="&#xce;" horiz-adv-x="234" 
d="M159 0h-82v638h82v-638zM281 736l-51 -22c-39 24 -81 53 -114 85c-33 -32 -71 -61 -110 -85l-47 20c45 35 101 91 135 139c7 10 19 17 26 17s19 -7 26 -16c34 -49 90 -104 135 -138z" />
    <glyph glyph-name="Idieresis" unicode="&#xcf;" horiz-adv-x="234" 
d="M159 0h-82v638h82v-638zM239 764c0 -14 -31 -47 -47 -47s-47 33 -47 47c0 16 31 48 47 48s47 -32 47 -48zM89 764c0 -14 -31 -47 -47 -47c-14 0 -47 33 -47 47c0 16 33 48 47 48c16 0 47 -32 47 -48z" />
    <glyph glyph-name="Igrave" unicode="&#xcc;" horiz-adv-x="234" 
d="M159 0h-82v638h82v-638zM199 736l-51 -22c-52 32 -99 68 -139 113c-7 7 -13 16 -13 22c0 13 29 41 42 41c7 0 19 -7 26 -16c35 -49 90 -104 135 -138z" />
    <glyph glyph-name="Oacute" unicode="&#xd3;" horiz-adv-x="754" 
d="M713 320c0 -203 -163 -331 -336 -331s-336 128 -336 331c0 201 163 330 336 330s336 -129 336 -330zM630 318c0 161 -126 259 -253 259c-129 0 -253 -98 -253 -259s124 -260 253 -260c127 0 253 99 253 260zM496 850c0 -5 -6 -13 -13 -21c-41 -45 -88 -83 -141 -115
l-47 20c46 36 100 91 135 140c7 10 19 16 25 16c13 0 41 -28 41 -40z" />
    <glyph glyph-name="Ocircumflex" unicode="&#xd4;" horiz-adv-x="754" 
d="M713 320c0 -203 -163 -331 -336 -331s-336 128 -336 331c0 201 163 330 336 330s336 -129 336 -330zM630 318c0 161 -126 259 -253 259c-129 0 -253 -98 -253 -259s124 -260 253 -260c127 0 253 99 253 260zM537 736l-51 -22c-39 24 -81 53 -114 85
c-33 -32 -71 -61 -110 -85l-47 20c45 35 101 91 135 139c7 10 19 17 26 17s19 -7 26 -16c34 -49 90 -104 135 -138z" />
    <glyph glyph-name="apple" unicode="&#xf8ff;" horiz-adv-x="611" 
d="M569 152c0 -36 -30 -55 -55 -55v-97h-472v453h472v-246zM486 233v153h-153zM230 386h-160c0 -44 35 -80 79 -80s81 36 81 80zM486 27v81l-382 180c-13 6 -24 15 -34 27v-288h416z" />
    <glyph glyph-name="Ograve" unicode="&#xd2;" horiz-adv-x="754" 
d="M713 320c0 -203 -163 -331 -336 -331s-336 128 -336 331c0 201 163 330 336 330s336 -129 336 -330zM630 318c0 161 -126 259 -253 259c-129 0 -253 -98 -253 -259s124 -260 253 -260c127 0 253 99 253 260zM453 736l-51 -22c-52 32 -99 68 -139 113c-7 7 -13 16 -13 22
c0 13 29 41 42 41c7 0 19 -7 26 -16c35 -49 90 -104 135 -138z" />
    <glyph glyph-name="Uacute" unicode="&#xda;" horiz-adv-x="642" 
d="M576 223c0 -147 -106 -234 -254 -234s-255 87 -255 234v415h82v-407c0 -103 60 -169 173 -169s174 66 174 169v407h80v-415zM444 850c0 -5 -6 -13 -13 -21c-41 -45 -88 -83 -141 -115l-47 20c46 36 100 91 135 140c7 10 19 16 25 16c13 0 41 -28 41 -40z" />
    <glyph glyph-name="Ucircumflex" unicode="&#xdb;" horiz-adv-x="642" 
d="M576 223c0 -147 -106 -234 -254 -234s-255 87 -255 234v415h82v-407c0 -103 60 -169 173 -169s174 66 174 169v407h80v-415zM485 736l-51 -22c-39 24 -81 53 -114 85c-33 -32 -71 -61 -110 -85l-47 20c45 35 101 91 135 139c7 10 19 17 26 17s19 -7 26 -16
c34 -49 90 -104 135 -138z" />
    <glyph glyph-name="Ugrave" unicode="&#xd9;" horiz-adv-x="642" 
d="M576 223c0 -147 -106 -234 -254 -234s-255 87 -255 234v415h82v-407c0 -103 60 -169 173 -169s174 66 174 169v407h80v-415zM403 736l-51 -22c-52 32 -99 68 -139 113c-7 7 -13 16 -13 22c0 13 29 41 42 41c7 0 19 -7 26 -16c35 -49 90 -104 135 -138z" />
    <glyph glyph-name="dotlessi" unicode="&#x131;" horiz-adv-x="213" 
d="M145 0h-78v453h78v-453z" />
    <glyph glyph-name="circumflex" unicode="&#x2c6;" 
d="M411 536l-51 -22c-39 24 -81 53 -114 85c-33 -32 -71 -61 -110 -85l-47 20c45 35 101 91 135 139c7 10 19 17 26 17s19 -7 26 -16c34 -49 90 -104 135 -138z" />
    <glyph glyph-name="tilde" unicode="&#x2dc;" 
d="M420 647c-27 -47 -81 -115 -109 -115c-31 0 -84 46 -103 46c-20 0 -52 -43 -65 -61l-52 23c28 47 82 114 110 114c30 0 84 -46 102 -46c20 0 52 43 66 62z" />
    <glyph glyph-name="macron" unicode="&#xaf;" 
d="M339 526h-178v66h178v-66z" />
    <glyph glyph-name="macron" unicode="&#x2c9;" 
d="M339 526h-178v66h178v-66z" />
    <glyph glyph-name="breve" unicode="&#x2d8;" 
d="M365 558c-4 -3 -52 -43 -114 -43c-63 0 -112 40 -116 43l44 45c3 -2 37 -21 72 -21c36 0 67 19 70 21z" />
    <glyph glyph-name="dotaccent" unicode="&#x2d9;" 
d="M296 564c0 -14 -30 -46 -46 -46c-14 0 -46 32 -46 46c0 15 32 47 46 47c15 0 46 -31 46 -47z" />
    <glyph glyph-name="ring" unicode="&#x2da;" 
d="M357 611c0 -58 -49 -106 -107 -106s-107 48 -107 106s49 106 107 106s107 -48 107 -106zM303 611c0 33 -22 56 -53 56s-54 -23 -54 -56c0 -32 23 -56 54 -56s53 24 53 56z" />
    <glyph glyph-name="cedilla" unicode="&#xb8;" 
d="M342 -128c0 -67 -55 -100 -107 -100c-30 0 -55 9 -77 24l10 45c19 -15 43 -22 67 -22c26 0 52 19 52 51c0 33 -30 50 -47 50c-29 0 -35 17 -31 34l12 47h35l-9 -31c44 -1 95 -39 95 -98z" />
    <glyph glyph-name="hungarumlaut" unicode="&#x2dd;" 
d="M437 651c0 -7 -6 -15 -13 -23c-40 -45 -87 -81 -139 -113l-51 22c45 35 101 89 135 138c7 10 19 17 26 17c14 0 42 -29 42 -41zM287 651c1 -7 -5 -15 -12 -23c-39 -45 -87 -81 -139 -113l-51 22c45 35 100 89 135 138c7 10 19 17 26 17c13 0 41 -29 41 -41z" />
    <glyph glyph-name="ogonek" unicode="&#x2db;" 
d="M338 -164l-11 -50c-15 -9 -34 -14 -64 -14c-54 0 -101 32 -101 89c0 61 50 113 106 139h69c-62 -30 -120 -76 -120 -133c0 -31 23 -48 58 -48c27 0 45 5 63 17z" />
    <glyph glyph-name="caron" unicode="&#x2c7;" 
d="M395 661c-48 -36 -98 -88 -132 -142c-2 -4 -8 -8 -12 -8c-5 0 -11 3 -13 8c-33 54 -85 106 -132 142l53 23c35 -25 66 -50 91 -80c26 30 57 55 91 80z" />
    <glyph glyph-name="Eth" unicode="&#xd0;" horiz-adv-x="666" 
d="M625 319c0 -204 -164 -319 -349 -319h-182v290h-81v62h81v286h182c185 0 349 -115 349 -319zM541 318c0 166 -123 249 -279 249h-85v-215h132l-14 -62h-118v-221h85c156 0 279 83 279 249z" />
    <glyph glyph-name="Euro" unicode="&#x20ac;" horiz-adv-x="492" 
d="M346 288l-9 -45h-165c20 -125 92 -186 167 -186c42 0 74 8 101 25l-8 -69c-21 -14 -60 -21 -99 -21c-114 0 -213 86 -237 250h-82v46h78c0 10 -1 20 -1 31c0 12 1 24 1 35h-78v46h83c25 160 124 246 236 246c56 0 91 -13 118 -28l-14 -65c-25 17 -59 28 -99 28
c-77 0 -145 -61 -166 -181h184l-9 -46h-180c-1 -11 -1 -23 -1 -36c0 -10 0 -20 1 -30h179z" />
    </font>
</defs>
</svg>
